Торрент файл
скачать торрент магнет ссылка Добавлен: 21 дек 2016, 18:31
Размер: 2.21 ГБ
Сидеров: 35
Личеров: 53
Автор

СообщениеДобавлено: 21 дек 2016, 18:31 

Не в сети
Дата регистрации:
28 сен 2016, 18:10
Спасибо: 192 / 0
Сообщения: 2005
Информация о фильме
Оригинальное название: Что? Где? Когда?
Год выпуска: 2016
Жанр: Интеллектуальное шоу
О фильме:
Интеллектуальная викторина, наиболее распространённая в русскоязычной среде. Была создана в 1975 г. телеведущим Владимиром Ворошиловым. Игра очень быстро стала настолько популярной, что кроме оригинальной телевизионной версии появилась спортивная версия игры. Сущность игры заключается в противостоянии команды Знатоков (игровой команды из шести человек) команде Телезрителей. Знатоки должны за одну минуту при помощи мозгового штурма найти ответ на вопрос, присланный телезрителем. Как правило, игрокам задаются вопросы, ответить на которые можно с помощью общих знаний и логики. За каждый правильный ответ команда Знатоков получает одно очко, в случае неверного ответа очко начисляется команде Телезрителей. Игра ведётся до шести очков.
Выпущено: Россия, Продюсерский центр "ИГРА-ТВ"
Ведущий: Борис Крюк
Продолжительность: 4 х ~ 01:00:00
Файл
Формат: MKV
Качество: HDTVRip-AVC
Видео: High@L4.1, ~1200 Кбит/с, 1024x576
Аудио: AC3, 2 ch, 192 Кбит/с
Первая игра состоится – 20 ноября. В ней примут участие обладатели приза «Хрустальный атом».
Cостав команды: Никита Баринов, Иван Марышев, Ия Метревели, Алексей Самулёв, Инна Семёнова. Капитан команды – Елена Александрова.
Во второй игре – 27 ноября - против телезрителей выступит команда Виктора Сиднева.
Состав команды: Александр Друзь, Максим Поташев, Борис Левин, Леонид Тимофеев, Михаил Дюба, Виктор Сиднев.
В третьей игре – 11 декабря примет участие команда Бориса Белозёрова.
Состав команды: Ольга Быкова, Дарья Любинская, Ким Галачян, Антон Иоков, Никита Старун, Борис Белозёров.
В четвёртой игре – 18 декабря сыграет команда Балаша Касумова.
Состав команды: Михаил Скипский, Елизавета Овдеенко, Юлия Лазарева, Дмитрий Авдеенко, Эльман Талыбов, Балаш Касумов.
В Финале года – 25 декабря – против сборной команды телезрителей выступит команда знатоков, которая покажет лучший результат в первых четырёх играх.
General
Unique ID : 300820465496190675641672919510198050023 (0xE24FEA0B8679EDE8C59410F00F0CDCE7)
Complete name : F:СериалыЧто_Где_Когда-Зимняя серия [05] (2016) HDTVRip-AVCИгра_01.(Зима-2016).HDTVRIP-AVC.[-=DoMiNo=-].mkv
Format : Matroska
Format version : Version 4 / Version 2
File size : 606 MiB
Duration : 1 h 0 min
Overall bit rate : 1 395 kb/s
Writing application : XviD4PSP 7.0.337 DAILY
Writing library : Lavf57.41.100 / Lavf57.41.100
ENCODING_INFO : MATROSKA,WEBM > MKV Произвольный / H264 > X264 VBR-2P 1200kbps Произвольный 2 3 / AC3 > COPY
Video
ID : 1
Format : AVC
Format/Info : Advanced Video Codec
Format profile : High@L4.1
Format settings, CABAC : Yes
Format settings, ReFrames : 12 frames
Codec ID : V_MPEG4/ISO/AVC
Duration : 1 h 0 min
Bit rate : 1 200 kb/s
Width : 1 024 pixels
Height : 576 pixels
Display aspect ratio : 16:9
Frame rate mode : Constant
Frame rate : 25.000 FPS
Color space : YUV
Chroma subsampling : 4:2:0
Bit depth : 8 bits
Scan type : Progressive
Bits/(Pixel*Frame) : 0.081
Stream size : 510 MiB (84%)
Writing library : x264 core 148 r2744M b97ae06
Encoding settings : cabac=1 / ref=12 / deblock=1:-3:-3 / analyse=0x3:0x133 / me=umh / subme=11 / psy=1 / psy_rd=1.00:0.10 / mixed_ref=1 / me_range=48 / chroma_me=1 / trellis=2 / 8x8dct=1 / cqm=0 / deadzone=21,11 / fast_pskip=0 / chroma_qp_offset=-3 / threads=5 / lookahead_threads=1 / sliced_threads=0 / nr=0 / decimate=1 / interlaced=0 / bluray_compat=0 / constrained_intra=0 / bframes=11 / b_pyramid=2 / b_adapt=2 / b_bias=0 / direct=3 / weightb=1 / open_gop=0 / weightp=2 / keyint=250 / keyint_min=25 / scenecut=40 / intra_refresh=0 / rc_lookahead=60 / rc=2pass / mbtree=1 / bitrate=1200 / ratetol=1.0 / qcomp=0.60 / qpmin=0 / qpmax=69 / qpstep=4 / cplxblur=20.0 / qblur=0.5 / ip_ratio=1.40 / aq=1:1.00
Default : Yes
Forced : No
DURATION : 01:00:40.960000000
Audio
ID : 2
Format : AC-3
Format/Info : Audio Coding 3
Mode extension : CM (complete main)
Format settings, Endianness : Big
Codec ID : A_AC3
Duration : 1 h 0 min
Bit rate mode : Constant
Bit rate : 192 kb/s
Channel(s) : 2 channels
Channel positions : Front: L R
Sampling rate : 48.0 kHz
Frame rate : 31.250 FPS (1536 spf)
Bit depth : 16 bits
Compression mode : Lossy
Stream size : 83.3 MiB (14%)
Default : Yes
Forced : No
DURATION : 01:00:41.024000000




реклама партнёра


Вернуться к началу
 Профиль Отправить личное сообщение  
 
   Похожие торренты   Автор   Торрент   Размер 
В этой теме нет новых непрочитанных сообщений. Что? Где? Когда? Зимняя серия [01-05 из 05] (Интеллектуальное шоу, 2016) HDTVRip-AVC

marya111

54 | 61

3.16 ГБ

В этой теме нет новых непрочитанных сообщений. Что? Где? Когда? Зимняя серия. Игра третья [Эфир 11.12] (Интеллектуальное шоу, 2016) HDTVRip от GeneralFim

marya111

771 | 48

921.76 МБ

В этой теме нет новых непрочитанных сообщений. Что? Где? Когда? Зимняя серия. Игра третья [Эфир 11.12] (Интеллектуальное шоу, 2016) HDTVRip от GeneralFim

marya111

144 | 301

3.18 ГБ

В этой теме нет новых непрочитанных сообщений. На глубине [Серия 1-16 из 16] [Боевик, криминал, 2016] HDTVRip 720p

Dracon

360 | 196

24.89 ГБ

В этой теме нет новых непрочитанных сообщений. Винил [01 сезон: 01 серия из 10] [драма, музыка, 2016] HDTVRip [Amedia]

Dracon

208 | 0

1.28 ГБ

В этой теме нет новых непрочитанных сообщений. 11/22/63 [01 сезон: 01-02 серия из 08] [Фантастика, триллер, детектив, 2016] HDTVRip [BaibaKo]

Dracon

53 | 15

1.06 ГБ

В этой теме нет новых непрочитанных сообщений. Миллиарды / Billions [1 сезон: 1-5 серия из 12] [Драма, 2016] HDTVRip [NewStudio]

Dracon

15 | 9

3.37 ГБ


Начать новую тему Ответить на тему  [ 1 сообщение ] 




Для Мосгорсуда, Роскомнадзора и рекламодателей:: mosgorsud-torrent[собачка]yandex.ru