Торрент файл
скачать торрент магнет ссылка Добавлен: 08 дек 2016, 19:19
Размер: 15.3 ГБ
Сидеров: 38
Личеров: 68
Автор

СообщениеДобавлено: 08 дек 2016, 19:19 

Не в сети
Дата регистрации:
28 сен 2016, 18:10
Спасибо: 199 / 0
Сообщения: 2005
Год выпуска: 2016
Страна: Великобритания и США
Жанр: Авто-шоу,документальный, ток-шоу, комедия.
Продолжительность:~01:11:00
Перевод:
Перевод #1: Профессиональный Многоголосый закадровый -AlexFilm
Перевод #2: Любительский Многоголосый закадровый - BMIRussian
Перевод #3:Любительский Многоголосый закадровый - Goldfilm
Перевод #4: Любительский Многоголосый закадровый - Gears Media
Перевод #5: Профессиональный Многоголосый закадровый -Jaskier
Перевод #6: Любительский Многоголосый закадровый - Jetvis Studio & RG.paravozik
Перевод #7:Профессиональный Многоголосый закадровый -NewStudio
Субтитры: Русские и Английские
Режиссер:Брайан Клейн, Фил Чурчуорд, Найджел Симпкисс,
Продюсер: Энди Уилман, Алекс Рентон, Грант Уордроп,
Композитор: Пол Леонард-Морган
Художник: Джонатан Пол Грин, Джеймс Роуэлл, Саймон Киммел
Монтаж: Ник Брэдфорд
В ролях: Ричард Хаммонд / Richard Hammond (играет самого себя ), Джереми Кларксон / Jeremy Clarkson (играет самого себя ), Джеймс Мэй / James May (играет самого себя -)
Описание: Автомобильное телешоу, созданное бывшими ведущими Топ гир — Джереми Кларксоном, Ричардом Хаммондом и Джеймсом Мэйем.




Качество: WEB-DLRip
Формат: MKV
Видео кодек:AVC
Аудио кодеk: AC3 ,E-AC3
Видео: AVC, 1920x1080, 23.976 fps, 13200 kbps avg, 0.262 bit/pixel
Аудио:
Аудио #1:48 kHz, AC3 Dolby Digital, 3/2 (L,C,R,l,r) + LFE ch, ~384.00 kbps - AlexFilm
Аудио #2:48 kHz,E-АС3 Dolby Digital Plus, 3/2 (L,C,R,l,r) + LFE ch, ~640.00 kbps - BMIRussian
Аудио #3:48 kHz, AC3 Dolby Digital , 2/0 (L,R) ch, ~192 kbps - Goldfilm
Аудио #4:48 kHz, AC3 Dolby Digital , 2/0 (L,R) ch, ~256 kbps -Gears Media
Аудио #5:48 kHz, AC3 Dolby Digital, 3/2 (L,C,R,l,r) + LFE ch, ~384.00 kbps -Jaskier
Аудио #6:48 kHz, AC3 Dolby Digital , 2/0 (L,R) ch, ~192 kbps -Jetvis Studio & RG.paravozik
Аудио #7:48 kHz, AC3 Dolby Digital, 3/2 (L,C,R,l,r) + LFE ch, ~384.00 kbps -NewStudio
Аудио #8:48 kHz,E-АС3 Dolby Digital Plus, 3/2 (L,C,R,l,r) + LFE ch, ~640.00 kbps -Original
Озвучка:AlexFilm
Перевод: Константин Кривоногов
Монтаж и сведение звука: Алексей Фокин
Роли озвучивали:Андрей Стакионис, Константин ,Погодаев, Дмитрий, Лунёв,Рустам Шайхиев


Озвучка: Jetvis Studio & RG.paravozik
Перевод: doc_ravik
Роли озвучивали: Иван Назаров, Сергей Битюцкий, Михаил Вельмискин, Никита Пугач


Озвучка: Jaskier
Роли озвучивали: Михаил Кшиштовский и другие


Озвучка: NewStudio
Роли озвучивали: Александр Новиков и другие

ЦитатаКто-то писал:
Общее
Уникальный идентификатор : 207180207260159076281669051798466011726 (0x9BDD74DD7D719DC1ACAA9BD6132B224E)
Полное имя : H:GTS1.1080p�1.mkv
Формат : Matroska
Версия формата : Version 2
Размер файла : 8,30 Гбайт
Продолжительность : 1 ч. 11 м.
Общий поток : 16,6 Мбит/сек
Дата кодирования : UTC 2016-11-26 10:34:40
Программа кодирования : mkvmerge v7.8.0 ('River Man') 32bit built on Apr 3 2015 12:11:22
Библиотека кодирования : libebml v1.3.1 + libmatroska v1.4.2
Видео
Идентификатор : 1
Формат : AVC
Формат/Информация : Advanced Video Codec
Профиль формата : High@L4.1
Параметр CABAC формата : Да
Параметр ReFrames формата : 4 кадра
Идентификатор кодека : V_MPEG4/ISO/AVC
Продолжительность : 1 ч. 11 м.
Битрейт : 13,2 Мбит/сек
Ширина : 1920 пикселей
Высота : 1080 пикселей
Соотношение сторон : 16:9
Режим частоты кадров : Постоянный
Частота кадров : 23,976 (24000/1001) кадра/сек
Цветовое пространство : YUV
Субдискретизация насыщенности : 4:2:0
Битовая глубина : 8 бит
Тип развёртки : Прогрессивная
Бит/(Пиксели*Кадры) : 0.265
Размер потока : 6,60 Гбайт (80%)
Библиотека кодирования : x264 core 148 r2721+7 72d53ab / tmod 162ad1b X86_64
Настройки программы : cabac=1 / ref=4 / deblock=1:-3:-3 / analyse=0x3:0x133 / me=umh / subme=11 / psy=1 / fade_compensate=0.00 / psy_rd=1.05:0.15 / mixed_ref=1 / me_range=48 / chroma_me=1 / trellis=2 / 8x8dct=1 / cqm=0 / deadzone=6,6 / fast_pskip=0 / chroma_qp_offset=-3 / threads=12 / lookahead_threads=3 / sliced_threads=0 / nr=0 / decimate=0 / interlaced=0 / bluray_compat=0 / constrained_intra=0 / fgo=0 / bframes=10 / b_pyramid=2 / b_adapt=2 / b_bias=0 / direct=3 / weightb=1 / open_gop=0 / weightp=2 / keyint=250 / keyint_min=23 / scenecut=40 / intra_refresh=0 / rc=crf / mbtree=0 / crf=20.0000 / qcomp=0.65 / qpmin=0:0:0 / qpmax=69:69:69 / qpstep=4 / ip_ratio=1.10 / pb_ratio=1.10 / aq=3:0.70 / aq-sensitivity=10.00 / aq-factor=1.00:1.00:1.00 / aq2=0 / aq3=0
Язык : English
Default : Да
Forced : Нет
Аудио #1
Идентификатор : 2
Формат : AC-3
Формат/Информация : Audio Coding 3
Расширение режима : CM (complete main)
Параметр Endianness формата : Big
Идентификатор кодека : A_AC3
Продолжительность : 1 ч. 11 м.
Вид битрейта : Постоянный
Битрейт : 384 Кбит/сек
Каналы : 6 каналов
Расположение каналов : Front: L C R, Side: L R, LFE
Частота : 48,0 КГц
Частота кадров : 31,250 кадров/сек (1536 spf)
Битовая глубина : 16 бит
Метод сжатия : С потерями
Размер потока : 197 Мбайт (2%)
Заголовок : AlexFilm
Default : Да
Forced : Нет
Аудио #2
Идентификатор : 3
Формат : AC-3
Формат/Информация : Audio Coding 3
Расширение режима : CM (complete main)
Параметр Endianness формата : Big
Идентификатор кодека : A_AC3
Продолжительность : 1 ч. 11 м.
Вид битрейта : Постоянный
Битрейт : 640 Кбит/сек
Каналы : 6 каналов
Расположение каналов : Front: L C R, Side: L R, LFE
Частота : 48,0 КГц
Частота кадров : 31,250 кадров/сек (1536 spf)
Битовая глубина : 16 бит
Метод сжатия : С потерями
Размер потока : 328 Мбайт (4%)
Заголовок : BMIRussian
Язык : Russian
Default : Нет
Forced : Нет
Аудио #3
Идентификатор : 4
Формат : AC-3
Формат/Информация : Audio Coding 3
Расширение режима : CM (complete main)
Параметр Endianness формата : Big
Идентификатор кодека : A_AC3
Продолжительность : 1 ч. 11 м.
Вид битрейта : Постоянный
Битрейт : 192 Кбит/сек
Каналы : 2 канала
Расположение каналов : Front: L R
Частота : 48,0 КГц
Частота кадров : 31,250 кадров/сек (1536 spf)
Битовая глубина : 16 бит
Метод сжатия : С потерями
Размер потока : 98,4 Мбайт (1%)
Заголовок : GoldFilm
Язык : Russian
Default : Нет
Forced : Нет
Аудио #4
Идентификатор : 5
Формат : AC-3
Формат/Информация : Audio Coding 3
Расширение режима : CM (complete main)
Параметр Endianness формата : Big
Идентификатор кодека : A_AC3
Продолжительность : 1 ч. 11 м.
Вид битрейта : Постоянный
Битрейт : 256 Кбит/сек
Каналы : 2 канала
Расположение каналов : Front: L R
Частота : 48,0 КГц
Частота кадров : 31,250 кадров/сек (1536 spf)
Битовая глубина : 16 бит
Метод сжатия : С потерями
Размер потока : 131 Мбайт (2%)
Заголовок : Gears Media
Язык : Russian
Default : Нет
Forced : Нет
Аудио #5
Идентификатор : 6
Формат : AC-3
Формат/Информация : Audio Coding 3
Расширение режима : CM (complete main)
Параметр Endianness формата : Big
Идентификатор кодека : A_AC3
Продолжительность : 1 ч. 11 м.
Вид битрейта : Постоянный
Битрейт : 384 Кбит/сек
Каналы : 6 каналов
Расположение каналов : Front: L C R, Side: L R, LFE
Частота : 48,0 КГц
Частота кадров : 31,250 кадров/сек (1536 spf)
Битовая глубина : 16 бит
Метод сжатия : С потерями
Размер потока : 197 Мбайт (2%)
Заголовок : Jaskier
Язык : Russian
Default : Нет
Forced : Нет
Аудио #6
Идентификатор : 7
Формат : AC-3
Формат/Информация : Audio Coding 3
Расширение режима : CM (complete main)
Параметр Endianness формата : Big
Идентификатор кодека : A_AC3
Продолжительность : 1 ч. 11 м.
Вид битрейта : Постоянный
Битрейт : 192 Кбит/сек
Каналы : 2 канала
Расположение каналов : Front: L R
Частота : 48,0 КГц
Частота кадров : 31,250 кадров/сек (1536 spf)
Битовая глубина : 16 бит
Метод сжатия : С потерями
Размер потока : 98,4 Мбайт (1%)
Заголовок : Jetvis.Paravozik
Язык : Russian
Default : Нет
Forced : Нет
Аудио #7
Идентификатор : 8
Формат : AC-3
Формат/Информация : Audio Coding 3
Расширение режима : CM (complete main)
Параметр Endianness формата : Big
Идентификатор кодека : A_AC3
Продолжительность : 1 ч. 11 м.
Вид битрейта : Постоянный
Битрейт : 384 Кбит/сек
Каналы : 6 каналов
Расположение каналов : Front: L C R, Side: L R, LFE
Частота : 48,0 КГц
Частота кадров : 31,250 кадров/сек (1536 spf)
Битовая глубина : 16 бит
Метод сжатия : С потерями
Размер потока : 197 Мбайт (2%)
Заголовок : NewStudio
Язык : Russian
Default : Нет
Forced : Нет
Аудио #8
Идентификатор : 9
Формат : E-AC-3
Формат/Информация : Enhanced Audio Coding 3
Параметр Endianness формата : Big
Идентификатор кодека : A_EAC3
Продолжительность : 1 ч. 11 м.
Вид битрейта : Постоянный
Битрейт : 640 Кбит/сек
Каналы : 6 каналов
Расположение каналов : Front: L C R, Side: L R, LFE
Частота : 48,0 КГц
Частота кадров : 187,500 кадров/сек (256 spf)
Метод сжатия : С потерями
Размер потока : 328 Мбайт (4%)
Заголовок : Original
Язык : English
Default : Нет
Forced : Нет
Текст #1
Идентификатор : 10
Формат : UTF-8
Идентификатор кодека : S_TEXT/UTF8
Идентификатор кодека/Информация : UTF-8 Plain Text
Заголовок : English
Язык : English
Default : Нет
Forced : Нет
Текст #2
Идентификатор : 11
Формат : UTF-8
Идентификатор кодека : S_TEXT/UTF8
Идентификатор кодека/Информация : UTF-8 Plain Text
Заголовок : English (SDH)
Язык : English
Default : Нет
Forced : Нет
Текст #3
Идентификатор : 12
Формат : ASS
Идентификатор кодека : S_TEXT/ASS
Идентификатор кодека/Информация : Advanced Sub Station Alpha
Метод сжатия : Без потерь
Заголовок : Rus
Язык : Russian
Default : Да
Forced : Нет
Текст #4
Идентификатор : 13
Формат : ASS
Идентификатор кодека : S_TEXT/ASS
Идентификатор кодека/Информация : Advanced Sub Station Alpha
Метод сжатия : Без потерь
Заголовок : Rus
Язык : Russian
Default : Нет
Forced : Нет






реклама партнёра


Вернуться к началу
 Профиль Отправить личное сообщение  
 
   Похожие торренты   Автор   Торрент   Размер 
В этой теме нет новых непрочитанных сообщений. Гранд тур / The Grand Tour [01x01-04 из 12] ( Авто-шоу,документальный, ток-шоу, комедия, 2016) WEB-DLRip 1080p | P, L

marya111

43 | 132

30.73 ГБ

В этой теме нет новых непрочитанных сообщений. Гранд тур / The Grand Tour [01x01-03 из 12] (Авто-шоу,документальный, ток-шоу, комедия, 2016) WEB-DLRip 1080p | P, L

marya111

106 | 181

22.55 ГБ

В этой теме нет новых непрочитанных сообщений. Гранд тур / The Grand Tour [01х01-11 из 12] ( Авто-шоу,документальный, ток-шоу, комедия, 2016) WEB-DLRip | Jaskier, Gears Media

marya111

58 | 214

6.98 ГБ

В этой теме нет новых непрочитанных сообщений. Гранд тур / The Grand Tour [01х01-06 из 12] ( Авто-шоу,документальный, ток-шоу, комедия, 2016) WEB-DLRip | Jaskier, Gears Media

marya111

106 | 206

3.59 ГБ

В этой теме нет новых непрочитанных сообщений. Гранд тур / The Grand Tour [01х01 из 12] (Авто-шоу,документальный, ток-шоу, комедия, 2016) WEB-DLRip | Jaskier, Gears Media

marya111

34 | 32

1.22 ГБ

В этой теме нет новых непрочитанных сообщений. Гранд тур / The Grand Tour [01х01-11 из 12] ( Авто-шоу,документальный, ток-шоу, комедия, 2016) WEB-DLRip | Jaskier, Gears Media

marya111

64 | 129

6.38 ГБ

В этой теме нет новых непрочитанных сообщений. Гранд тур / The Grand Tour [01х01-11 из 12] (Авто-шоу,документальный, ток-шоу, комедия, 2016) WEB-DLRip | Jetvis Studio & RG.paravozik, BMIRussian

marya111

52 | 106

7.42 ГБ


Начать новую тему Ответить на тему  [ 1 сообщение ] 




Для Мосгорсуда, Роскомнадзора и рекламодателей:: mosgorsud-torrent[собачка]yandex.ru