Торрент файл
скачать торрент магнет ссылка Добавлен: 24 ноя 2016, 13:39
Размер: 3.01 ГБ
Сидеров: 23
Личеров: 7
Автор

СообщениеДобавлено: 24 ноя 2016, 13:39 

Не в сети
Дата регистрации:
28 сен 2016, 18:10
Спасибо: 62 / 0
Сообщения: 1040
Украина в огне / Ukraine on Fire
Страна: США
Производство: Another Way Productions
Год выпуска: 2016
Жанр: документальный
Продолжительность: 01:35:46
Режиссеры: Оливер Стоун, Игорь Лопатенок, Бен Байуотер
Авторы сценария: Ванесса Дин, Томас Рейд
В ролях: Арина Беланова, Евгений Чернов, Владислав Чигрин, Ирина Дрон, Дмитрий Дума, Никита Гончаров, София Кисткина, Алексей Макеев
Описание: Документальный фильм американского кинорежиссера Оливера Стоуна "Украина в огне" расскажет об истории Украины в период с 1941 по 2014 год. Зритель увидит материалы о националистических движениях, которые существовали во времена Второй мировой войны и участвовали вместе с нацистами в массовых убийствах евреев и поляков, затем поддерживались ЦРУ во времена "холодной войны”, а затем повлияли на мирные манифестации последних лет. Показаны материалы, снятые на киевском Майдане в феврале 2014 года, когда на Украине произошёл государственный переворот...

Перевод: Профессиональный (двухголосый, закадровый) | Рен ТВ
Субтитры: нет

Качество: HDTV 1080i
Формат: MPEG-TS
Видео кодек: AVC
Аудио кодек: AAC
Видео: 1920x1080 (16:9), 25.000 fps, MPEG-TS AVC ~4 085 kbps avg
Аудио: 48.0 kHz, Advanced Audio Codec LC, 2/0 (L,R) ch, ~192 kbps | RUS
Дата премьеры (мир): 16 июня 2016
Дата премьеры (РФ): 21 ноября 2016

Формат : MPEG-TS
Размер файла : 3,01 Гбайт
Продолжительность : 1 ч. 35 м.
Режим общего битрейта : Переменный
Общий поток : 4502 Кбит/сек
Видео
Идентификатор : 101 (0x65)
Идентификатор меню : 1 (0x1)
Формат : AVC
Формат/Информация : Advanced Video Codec
Профиль формата : High@L4.0
Параметр CABAC формата : Да
Параметр ReFrames формата : 4 кадра
Идентификатор кодека : 27
Продолжительность : 1 ч. 35 м.
Вид битрейта : Переменный
Битрейт : 4085 Кбит/сек
Максимальный битрейт : 4500 Кбит/сек
Ширина : 1920 пикселей
Высота : 1080 пикселей
Соотношение сторон : 16:9
Частота кадров : 25,000 кадров/сек
Цветовое пространство : YUV
Субдискретизация насыщенности : 4:2:0
Битовая глубина : 8 бит
Тип развёртки : Прогрессивная
Бит/(Пиксели*Кадры) : 0.079
Размер потока : 2,73 Гбайт (91%)
Аудио
Идентификатор : 110 (0x6E)
Идентификатор меню : 1 (0x1)
Формат : AAC
Формат/Информация : Advanced Audio Codec
Версия формата : Version 4
Профиль формата : LC
Режим смешивания : ADTS
Идентификатор кодека : 15
Продолжительность : 1 ч. 35 м.
Вид битрейта : Переменный
Битрейт : 192 Кбит/сек
Каналы : 2 канала
Расположение каналов : Front: L R
Частота : 48,0 КГц
Метод сжатия : С потерями
Размер потока : 132 Мбайт (4%)




реклама партнёра


Вернуться к началу
 Профиль Отправить личное сообщение  
 
   Похожие торренты   Автор   Торрент   Размер 
В этой теме нет новых непрочитанных сообщений. Донбасс в огне (Россия) [Документальный, криминал, 2015] HDTV 1080i

Dracon

50 | 9

4.05 ГБ

В этой теме нет новых непрочитанных сообщений. Украина. Маски революции / Ukraine the masks of the revolution [Документальный, расследование, 2016] WEBRip,Avo

Dracon

2464 | 112

701 МБ

В этой теме нет новых непрочитанных сообщений. Команда навсегда ( Документальный, биография, 2016) HDTV 1080i от GeneralFilm

marya111

49 | 7

3.24 ГБ

В этой теме нет новых непрочитанных сообщений. Теория заговора. Прогресс — зло [13.11] (Документальный, познавательный, расследование, 2016) HDTV 1080i от GeneralFilm

marya111

0 | 0

2.22 ГБ

В этой теме нет новых непрочитанных сообщений. Теория заговора. Еда вместо антидепрессантов [06.11] (Документальный, познавательный, расследование, 2016) HDTV 1080i от GeneralFilm

marya111

4 | 0

2.22 ГБ

В этой теме нет новых непрочитанных сообщений. Футбол. Чемпионат России 2016-17. 16-й тур. Зенит (Санкт-Петербург) - Уфа [30.10] (2016) HDTV 1080i

salma3

1 | 10

10.8 ГБ

В этой теме нет новых непрочитанных сообщений. Футбол. Лига Чемпионов 2016-17. Группа F. 6-й тур. Реал Мадрид (Испания) - Боруссия Д (Германия) [07.12] (2016) HDTV 1080i

salma3

99 | 24

8.69 ГБ


Начать новую тему Ответить на тему  [ 1 сообщение ] 




Для Мосгорсуда, Роскомнадзора и рекламодателей:: mosgorsud-torrent[собачка]yandex.ru