Торрент файл
скачать торрент магнет ссылка Добавлен: 24 ноя 2016, 13:39
Размер: 3.01 ГБ
Сидеров: 154
Личеров: 7
Автор

СообщениеДобавлено: 24 ноя 2016, 13:39 

Не в сети
Дата регистрации:
28 сен 2016, 18:10
Спасибо: 232 / 0
Сообщения: 1982
Украина в огне / Ukraine on Fire
Страна: США
Производство: Another Way Productions
Год выпуска: 2016
Жанр: документальный
Продолжительность: 01:35:46
Режиссеры: Оливер Стоун, Игорь Лопатенок, Бен Байуотер
Авторы сценария: Ванесса Дин, Томас Рейд
В ролях: Арина Беланова, Евгений Чернов, Владислав Чигрин, Ирина Дрон, Дмитрий Дума, Никита Гончаров, София Кисткина, Алексей Макеев
Описание: Документальный фильм американского кинорежиссера Оливера Стоуна "Украина в огне" расскажет об истории Украины в период с 1941 по 2014 год. Зритель увидит материалы о националистических движениях, которые существовали во времена Второй мировой войны и участвовали вместе с нацистами в массовых убийствах евреев и поляков, затем поддерживались ЦРУ во времена "холодной войны”, а затем повлияли на мирные манифестации последних лет. Показаны материалы, снятые на киевском Майдане в феврале 2014 года, когда на Украине произошёл государственный переворот...

Перевод: Профессиональный (двухголосый, закадровый) | Рен ТВ
Субтитры: нет

Качество: HDTV 1080i
Формат: MPEG-TS
Видео кодек: AVC
Аудио кодек: AAC
Видео: 1920x1080 (16:9), 25.000 fps, MPEG-TS AVC ~4 085 kbps avg
Аудио: 48.0 kHz, Advanced Audio Codec LC, 2/0 (L,R) ch, ~192 kbps | RUS
Дата премьеры (мир): 16 июня 2016
Дата премьеры (РФ): 21 ноября 2016

Формат : MPEG-TS
Размер файла : 3,01 Гбайт
Продолжительность : 1 ч. 35 м.
Режим общего битрейта : Переменный
Общий поток : 4502 Кбит/сек
Видео
Идентификатор : 101 (0x65)
Идентификатор меню : 1 (0x1)
Формат : AVC
Формат/Информация : Advanced Video Codec
Профиль формата : High@L4.0
Параметр CABAC формата : Да
Параметр ReFrames формата : 4 кадра
Идентификатор кодека : 27
Продолжительность : 1 ч. 35 м.
Вид битрейта : Переменный
Битрейт : 4085 Кбит/сек
Максимальный битрейт : 4500 Кбит/сек
Ширина : 1920 пикселей
Высота : 1080 пикселей
Соотношение сторон : 16:9
Частота кадров : 25,000 кадров/сек
Цветовое пространство : YUV
Субдискретизация насыщенности : 4:2:0
Битовая глубина : 8 бит
Тип развёртки : Прогрессивная
Бит/(Пиксели*Кадры) : 0.079
Размер потока : 2,73 Гбайт (91%)
Аудио
Идентификатор : 110 (0x6E)
Идентификатор меню : 1 (0x1)
Формат : AAC
Формат/Информация : Advanced Audio Codec
Версия формата : Version 4
Профиль формата : LC
Режим смешивания : ADTS
Идентификатор кодека : 15
Продолжительность : 1 ч. 35 м.
Вид битрейта : Переменный
Битрейт : 192 Кбит/сек
Каналы : 2 канала
Расположение каналов : Front: L R
Частота : 48,0 КГц
Метод сжатия : С потерями
Размер потока : 132 Мбайт (4%)



Вернуться к началу
 Профиль Отправить личное сообщение  
 
   Похожие торренты   Автор   Торрент   Размер 
В этой теме нет новых непрочитанных сообщений. Футбол. Лига Чемпионов 2019-20. Группа C. 6-й тур. Шахтёр Д (Украина) - Аталанта (Италия) [11.12] (2019) HDTV 1080i

salma3

0 | 0

9.14 ГБ

В этой теме нет новых непрочитанных сообщений. Футбол. Лига Чемпионов 2019-20. Группа С. 2-й тур. Аталанта (Италия) - Шахтер Д (Украина) [01.10] (2019) HDTV 1080i

salma3

0 | 0

6.05 ГБ

В этой теме нет новых непрочитанных сообщений. Улицы в огне / Streets of Fire [Боевик, мелодрама, криминал, 1984] BDRip-HEVC 1080p, Dvo

salma3

0 | 0

11.91 ГБ

В этой теме нет новых непрочитанных сообщений. Проект "Украина" (Виталий Максимов) [2015 г., Документальный, расследование, факты, HDTV 1080p]

zorgi

0 | 1

3.15 ГБ

В этой теме нет новых непрочитанных сообщений. Пожарные Чикаго / Чикаго в Огне / Chicago Fire [08x01 из 22] [Драма, 2019] WEB-DLRip, Avo

salma3

0 | 0

597.46 МБ

В этой теме нет новых непрочитанных сообщений. В борьбе за Украину / Revealing Ukraine (Игорь Лопатенок, Оливер Стоун) [2019 г., история, документальный, HDTVRip 1080p]

zorgi

3 | 0

2.47 ГБ

В этой теме нет новых непрочитанных сообщений. Почему Украина = Россия [2022, Документальный, история, WEBRip]

zorgi

0 | 0

274.52 МБ


Начать новую тему Ответить на тему  [ 1 сообщение ] 




Для Мосгорсуда, Роскомнадзора и рекламодателей:: rstracker[собака]yandex.ru
cron