Торрент файл
скачать торрент магнет ссылка Добавлен: 24 ноя 2016, 13:39
Размер: 4.51 ГБ
Сидеров: 0
Личеров: 0
Автор

СообщениеДобавлено: 24 ноя 2016, 13:39 

Не в сети
Дата регистрации:
28 сен 2016, 18:10
Спасибо: 55 / 0
Сообщения: 942
Информация о фильме
Название: Гранд тур
Оригинальное название: The Grand Tour
Год выхода: 2016
Жанр: Авто-шоу
Режиссер: Джереми Кларксон, Ричард Хаммонд, Джеймс Мэй
В ролях: Джереми Кларксон, Ричард Хаммонд, Джеймс Мэй
О фильме:
Гранд Тур — это новое автомобильное шоу во главе с неизменной тройкой легендарных ведущих — Джереми Кларксоном, Ричардом Хаммондом и Джеймсом Мэйем. Распрощавшись с Top Gear, они создали новое детище в области автомобильных развлекательных шоу.

Страна: США
Студия: Amazon Studios
Продолжительность: 01:11:05
Перевод: Любительский многоголосый
Файл
Кодек: x264
Качество: WEBRip 1080p
Видео: MPEG-4 AVC, 8311 Кбит/с, 1920x1080, 23.976 кадр/с
Звук:
Аудио#1: MP3, 2 ch, 128 Кбит/с, 48 kHz | Русский
Аудио#2: E-AC-3, 6 ch, 640 Кбит/с, 48 kHz | Aнглийский
Субтитры: Английские
Видеоряд чистый.
Присутствует звуковая реклама
Общее
Уникальный идентификатор : 206773496844139134944736461958205586368 (0x9B8F207E56C28B60845A040CD4EEBBC0)
Полное имя : The.Grand.Tour.2016.S01E01.The.Holy.Trinity.1080p.AMZN.WEBRip.DD5.1.x264-NTb.mkv
Формат : Matroska
Версия формата : Version 4 / Version 2
Размер файла : 4,51 Гбайт
Продолжительность : 1 ч. 11 м.
Общий поток : 9081 Кбит/сек
Название фильма : The.Grand.Tour.S01.E01
Дата кодирования : UTC 2016-11-19 09:28:11
Программа кодирования : mkvmerge v9.2.0 ('Photograph') 32bit
Библиотека кодирования : libebml v1.3.3 + libmatroska v1.4.4
Видео
Идентификатор : 1
Формат : AVC
Формат/Информация : Advanced Video Codec
Профиль формата : High@L4.1
Параметр CABAC формата : Да
Параметр ReFrames формата : 4 кадра
Идентификатор кодека : V_MPEG4/ISO/AVC
Продолжительность : 1 ч. 11 м.
Битрейт : 8311 Кбит/сек
Ширина : 1920 пикселей
Высота : 1080 пикселей
Соотношение сторон : 16:9
Режим частоты кадров : Постоянный
Частота кадров : 23,976 (24000/1001) кадра/сек
Цветовое пространство : YUV
Субдискретизация насыщенности : 4:2:0
Битовая глубина : 8 бит
Тип развёртки : Прогрессивная
Бит/(Пиксели*Кадры) : 0.167
Размер потока : 4,13 Гбайт (92%)
Заголовок : The.Grand.Tour.S01.E01
Библиотека кодирования : x264 core 144 r2525 40bb568
Настройки программы : cabac=1 / ref=4 / deblock=1:-3:-3 / analyse=0x3:0x133 / me=umh / subme=10 / psy=1 / psy_rd=1.00:0.00 / mixed_ref=1 / me_range=48 / chroma_me=1 / trellis=2 / 8x8dct=1 / cqm=0 / deadzone=21,11 / fast_pskip=0 / chroma_qp_offset=-2 / threads=6 / lookahead_threads=1 / sliced_threads=0 / nr=0 / decimate=0 / interlaced=0 / bluray_compat=0 / constrained_intra=0 / bframes=8 / b_pyramid=2 / b_adapt=2 / b_bias=0 / direct=3 / weightb=1 / open_gop=0 / weightp=2 / keyint=250 / keyint_min=23 / scenecut=40 / intra_refresh=0 / rc=crf / mbtree=0 / crf=18.0 / qcomp=0.60 / qpmin=0 / qpmax=69 / qpstep=4 / ip_ratio=1.30 / pb_ratio=1.20 / aq=3:0.80
Язык : English
Default : Да
Forced : Нет
Аудио #1
Идентификатор : 2
Формат : MPEG Audio
Версия формата : Version 1
Профиль формата : Layer 3
Режим : Joint stereo
Расширение режима : MS Stereo
Идентификатор кодека : A_MPEG/L3
Идентификатор кодека/Подсказка : MP3
Продолжительность : 1 ч. 11 м.
Вид битрейта : Постоянный
Битрейт : 128 Кбит/сек
Каналы : 2 канала
Частота : 48,0 КГц
Частота кадров : 41,667 кадра/сек (1152 spf)
Метод сжатия : С потерями
Задержка видео : 22 мс.
Размер потока : 65,1 Мбайт (1%)
Заголовок :
Язык : Russian
Default : Да
Forced : Нет
Аудио #2
Идентификатор : 3
Формат : E-AC-3
Формат/Информация : Enhanced Audio Coding 3
Параметр Endianness формата : Big
Идентификатор кодека : A_EAC3
Продолжительность : 1 ч. 11 м.
Вид битрейта : Постоянный
Битрейт : 640 Кбит/сек
Каналы : 6 каналов
Расположение каналов : Front: L C R, Side: L R, LFE
Частота : 48,0 КГц
Частота кадров : 187,500 кадров/сек (256 spf)
Метод сжатия : С потерями
Размер потока : 325 Мбайт (7%)
Язык : English
Default : Нет
Forced : Нет




реклама партнёра


Вернуться к началу
 Профиль Отправить личное сообщение  
 
   Похожие торренты   Автор   Торрент   Размер 
В этой теме нет новых непрочитанных сообщений. Гранд Тур / The Grand Tour [01x01 из 12] (Документальные сериалы, Техника, 2016) WEBRip 1080p | AlexFilm

marya111

32 | 2

4.51 ГБ

В этой теме нет новых непрочитанных сообщений. Гранд Тур / The Grand Tour [01x01 из 12] (Автомобильное телешоу, комедия, 2016) WEB-DL 1080p | BMIRussian

marya111

15 | 3

6.77 ГБ

В этой теме нет новых непрочитанных сообщений. Гранд тур / The Grand Tour [01х01 из 12] (Авто-шоу,документальный, ток-шоу, комедия, 2016) WEB-DLRip | Jaskier, Gears Media

marya111

34 | 32

1.22 ГБ

В этой теме нет новых непрочитанных сообщений. Корпорация снов / Dream Corp LLC [01x01-02 из 06] ( Комедия, 2016) WEBRip 1080p | JimmyJ

marya111

0 | 0

1.47 ГБ

В этой теме нет новых непрочитанных сообщений. Корпорация снов / Dream Corp LLC [01x01-03 из 06] (Комедия, 2016) WEBRip 1080p | JimmyJ

marya111

0 | 0

2.2 ГБ

В этой теме нет новых непрочитанных сообщений. Отель «Гранд Будапешт» / The Grand Budapest Hotel Отель «Гранд Будапешт» / The Grand Budapest Hotel [комедия, детектив, приключения, криминал, 2014] HDRip, Dub [Лицензия]

Dracon

1820 | 32

1.46 ГБ

В этой теме нет новых непрочитанных сообщений. Отель «Гранд Будапешт» / The Grand Budapest Hotel [комедия, детектив, приключения, криминал, 2014] Blu-ray 1080p, Dub+Sub [Лицензия]

Dracon

44 | 17

36.85 ГБ


Начать новую тему Ответить на тему  [ 1 сообщение ] 




Для Мосгорсуда, Роскомнадзора и рекламодателей:: mosgorsud-torrent[собачка]yandex.ru