Торрент файл
скачать торрент магнет ссылка Добавлен: 13 ноя 2016, 02:53
Размер: 653.15 МБ
Сидеров: 0
Личеров: 0
Автор

СообщениеДобавлено: 13 ноя 2016, 02:53 

Не в сети
Дата регистрации:
28 сен 2016, 18:10
Спасибо: 54 / 0
Сообщения: 942
Телекомпания: ТНТ
Жанр: Юмор
Выпущено: Россия, ТНТ

Актеры: Павел Воля, Вадим Галыгин, Тимур Батрутдинов
Ведущий: Сергей Гореликов

Описание:
11 апреля в 00.30 на телеканале ТНТ состоится премьера нового шоу «Не спать!» Это будут настоящие, жесткие юмористические бои без правил с возрастным рейтингом «18+». В роли ведущего выступит резидент Comedy Club Сергей Гореликов. А судить и определять победителей будут три рефери. Среди судей можно будет увидеть Павла Волю, Вадима Галыгина, Тимура Батрутдинова, Николая Наумова и Екатерину Варнаву. Собственно, именно ради того, что бы оказаться рядом с Екатериной, Сергей Гореликов и согласился стать ведущим.
Правила просты. Каждый желающий участвовать в программе платит взнос – 10 000 рублей. Эти взносы составляют призовой фонд игры. Далее участники шутят, а рефери определяют, было ли их выступление смешным. Если нет, то претендентам придется покинуть ринг.
В шоу три этапа: выступление-заявка, импровизация и суперфинал. Отсев бескомпромиссный – в последний тур проходят лишь двое. Ну, а победитель получает все деньги, внесенные побежденными за участие в программе.
Поскольку во время выхода шоу дети уже спят, в «Не спать!» нет никаких ограничений, табу и священных коров. Главное – быть смешным настолько, чтобы зрителям-полуночникам глядя на тебя расхотелось спать.

Релиз от: ramzesII
Продолжительность: 00:47:07
Качество видео: SATRip
Субтитры: Отсутствуют

Видео: MPEG4, XviD, 720x400 (16:9), 25.000 fps, 1 800 Kbps (0.250 bit/pixel)
Аудио: MP3, 48.0 KHz, 2 ch, 128 Kbps, CBR

Код:

Формат : AVI
Формат/Информация : Audio Video Interleave
Размер файла : 653 Мбайт
Продолжительность : 47 м.
Общий поток : 1938 Кбит/сек
Программа кодирования : VirtualDubMod 1.5.10.3 (build 2550/release)
Библиотека кодирования : VirtualDubMod build 2550/release

Видео
Идентификатор : 0
Формат : MPEG-4 Visual
Профиль формата : Advanced Simple@L5
Параметр BVOP формата : 1
Параметр QPel формата : Нет
Параметр GMC формата : Без точки перехода
Параметр матрицы формата : Default (H.263)
Идентификатор кодека : XVID
Идентификатор кодека/Подсказка : XviD
Продолжительность : 47 м.
Битрейт : 1800 Кбит/сек
Ширина : 720 пикселей
Высота : 400 пикселей
Соотношение сторон : 16:9
Частота кадров : 25,000 кадров/сек
Цветовое пространство : YUV
Субдискретизация насыщенности : 4:2:0
Битовая глубина : 8 бит
Тип развёртки : Прогрессивная
Метод сжатия : С потерями
Бит/(Пиксели*Кадры) : 0.250
Размер потока : 607 Мбайт (93%)
Библиотека кодирования : XviD 67

Аудио
Идентификатор : 1
Формат : MPEG Audio
Версия формата : Version 1
Профиль формата : Layer 3
Режим : Joint stereo
Расширение режима : MS Stereo
Идентификатор кодека : 55
Идентификатор кодека/Подсказка : MP3
Продолжительность : 47 м.
Вид битрейта : Постоянный
Битрейт : 128 Кбит/сек
Каналы : 2 канала
Частота : 48,0 КГц
Метод сжатия : С потерями
Размер потока : 43,1 Мбайт (7%)
Выравнивание : Разделение по промежуткам
Продолжительность промежутка : 40 мс. (1,00 видеокадр)
Время предзагрузки промежутка : 500 мс.
Библиотека кодирования : LAME3.99.5UUUUUU#jЪм



Играю на аккордеоне за "Спасибо"






реклама партнёра


Вернуться к началу
 Профиль Отправить личное сообщение  
 
   Похожие торренты   Автор   Торрент   Размер 
В этой теме нет новых непрочитанных сообщений. Импровизация [1-2 выпуск] [Тв-Шоу, 2016] SATRip

Dracon

235 | 286

1.32 ГБ

В этой теме нет новых непрочитанных сообщений. Однажды в России (Россия) [2 Сезон: 25 Выпуск, 2016] SATRip

Dracon

1 | 0

647.73 МБ

В этой теме нет новых непрочитанных сообщений. Точь-в-точь! 3-й сезон 12 выпуск ФИНАЛ! (Россия) [ТВ-шоу, 01/01/2016] SATRip

Dracon

10 | 1

2.97 ГБ

В этой теме нет новых непрочитанных сообщений. Не спать! [01-43] [2014, Юмор, WEB-DLRip]

Dracon

15 | 25

27.34 ГБ

В этой теме нет новых непрочитанных сообщений. Не спать! [01-23 выпуски] [Юмор, 2014] WEB-DL 720p

Dracon

8 | 7

27.18 ГБ

В этой теме нет новых непрочитанных сообщений. Морэ & Рэльсы - Сегодня мы не будем спать [2011, Rock, MP3]

PriZraK

0 | 1

90.01 МБ

В этой теме нет новых непрочитанных сообщений. Специальный полуночный выпуск / Midnight Special [фантастика, триллер, приключения, 2016] HDRip, Avo

salma3

39 | 2

1.38 ГБ


Начать новую тему Ответить на тему  [ 1 сообщение ] 




Для Мосгорсуда, Роскомнадзора и рекламодателей:: mosgorsud-torrent[собачка]yandex.ru