Торрент файл
скачать торрент магнет ссылка Добавлен: 13 ноя 2016, 02:53
Размер: 1.2 ГБ
Сидеров: 0
Личеров: 0
Автор

СообщениеДобавлено: 13 ноя 2016, 02:53 

Не в сети
Дата регистрации:
28 сен 2016, 18:10
Спасибо: 211 / 0
Сообщения: 1999
Телекомпания: Россия
Жанр: Юмор

Участники: Игорь Маменко, дуэт "Новые Русские Бабки", Евгений Петросян, Юрий Аскаров, Елена Воробей, Геннадий Ветров, Владимир Винокур, Владимир Данилец и Владимир Моисеенко, Александр и Валерий Пономаренко и многие другие.

Описание:
Только лучшие из лучших в главном юмористическом фестивале года "Юморина" на телеканале "Россия"!
Сегодня только премьеры - новые пародии, миниатюры и монологи в исполнении любимых артистов.

Релиз от: Taz
Продолжительность: 01:28:27
Качество видео: SATRip
Субтитры: Отсутствуют

Видео: MPEG4, XviD, 720x400 (16:9), 25.000 fps, 1 798 Kbps (0.250 bit/pixel)
Аудио: MP3, 48.0 KHz, 2 ch, 128 Kbps, CBR

Код:

Формат : AVI
Формат/Информация : Audio Video Interleave
Размер файла : 1,20 Гбайт
Продолжительность : 1 ч. 28 м.
Общий поток : 1935 Кбит/сек
Программа кодирования : VirtualDubMod 1.5.10.3 | www.virtualdub-fr.org || (build 2550/release)
Библиотека кодирования : VirtualDubMod build 2550/release

Видео
Идентификатор : 0
Формат : MPEG-4 Visual
Профиль формата : Advanced Simple@L5
Параметр BVOP формата : 2
Параметр QPel формата : Нет
Параметр GMC формата : Без точки перехода
Параметр матрицы формата : Default (H.263)
Идентификатор кодека : XVID
Идентификатор кодека/Подсказка : XviD
Продолжительность : 1 ч. 28 м.
Битрейт : 1798 Кбит/сек
Ширина : 720 пикселей
Высота : 400 пикселей
Соотношение сторон : 16:9
Частота кадров : 25,000 кадров/сек
Цветовое пространство : YUV
Субдискретизация насыщенности : 4:2:0
Битовая глубина : 8 бит
Тип развёртки : Прогрессивная
Метод сжатия : С потерями
Бит/(Пиксели*Кадры) : 0.250
Размер потока : 1,11 Гбайт (93%)
Библиотека кодирования : XviD 1.2.1 (UTC 2008-12-04)

Аудио
Идентификатор : 1
Формат : MPEG Audio
Версия формата : Version 1
Профиль формата : Layer 3
Режим : Joint stereo
Расширение режима : MS Stereo
Идентификатор кодека : 55
Идентификатор кодека/Подсказка : MP3
Продолжительность : 1 ч. 28 м.
Вид битрейта : Постоянный
Битрейт : 128 Кбит/сек
Каналы : 2 канала
Частота : 48,0 КГц
Метод сжатия : С потерями
Размер потока : 81,0 Мбайт (7%)
Выравнивание : Соединение по промежуткам
Продолжительность промежутка : 40 мс. (1,00 видеокадр)
Время предзагрузки промежутка : 504 мс.
Библиотека кодирования : LAME3.99r
Настройки программы : -m j -V 4 -q 9 -lowpass 17 -b 128




Играю на аккордеоне за "Спасибо"






реклама партнёра


Вернуться к началу
 Профиль Отправить личное сообщение  
 
   Похожие торренты   Автор   Торрент   Размер 
В этой теме нет новых непрочитанных сообщений. Юморина [1-10 выпуски] (Россия) [Юмор, 2015] HDTVRip

Dracon

30 | 9

12.45 ГБ

В этой теме нет новых непрочитанных сообщений. Главная дорога (Эфир от 17.12.2016) [познавательная автопередача, 2016]SATRip

salma3

25 | 3

449.89 МБ

В этой теме нет новых непрочитанных сообщений. Квартирный вопрос [Выпуски за 2016, 01-43 выпуски] (ТВ-шоу, обучающий, ремонт, строительство, 2016) SATRip

marya111

10 | 18

29.36 ГБ

В этой теме нет новых непрочитанных сообщений. Дедушка [Мелодрама, 2016] SATRip-AVC

marya111

33 | 3

1.05 ГБ

В этой теме нет новых непрочитанных сообщений. Не спать! (2016.06.03) SATRip (выпуск 87)

marya111

0 | 1

653.15 МБ

В этой теме нет новых непрочитанных сообщений. Беседы с батюшкой [13.11] (2016) SATRip

marya111

30 | 9

590.87 МБ

В этой теме нет новых непрочитанных сообщений. Притворщики [Комедия, 2016] SATRip-AVC

salma3

62 | 17

960.37 МБ


Начать новую тему Ответить на тему  [ 1 сообщение ] 




Для Мосгорсуда, Роскомнадзора и рекламодателей:: mosgorsud-torrent[собачка]yandex.ru