Торрент файл
скачать торрент магнет ссылка Добавлен: 28 авг 2016, 11:56
Размер: 627.62 МБ
Сидеров: 172
Личеров: 5
Автор

СообщениеДобавлено: 28 авг 2016, 11:56 

Не в сети
Супермодератор
Аватара пользователя
Дата регистрации:
15 фев 2012, 16:44
Возраст: 32
Спасибо: 8325 / 2148
Сообщения: 97229
Жанр: ТВ-шоу, юмор, импровизация
Дата выхода в эфир: 26.08.2016
Ведущий: Павел Воля
Участники:Жюри, кандидаты в резиденты

Описание: В этом году участниками битвы станут все самые известные юмористы, когда-либо принимавшие участие в «Comedy Баттл», а также те, кто благодаря участию в шоу стали резидентами Comedy Club. Биться за главный приз с опытными юнитами будут молодые и талантливые новички. Победитель сезона получит 7 миллионов рублей, а такие огромные деньги не помешают никому: ни резиденту Comedy Club, ни начинающему, амбициозному дебютанту. Посмотрим, что возьмет верх: опыт или молодость.

Выпущено: ТНТ, "Comedy Club Production"
Продолжительность: 00:46:08
Язык: Русский
Файл
Кодек: XviD
Качество: WEB-DLRip
Видео: XviD, 1700 Кбит/с, 704x400
Аудио: AC3, 2 ch, 192 Кбит/с
Общее
Полное имя : D:ВидеоComedy Баттл (26.08.2016)WEB-DLRip by Vovan366(ExKinoRay).avi
Формат : AVI
Формат/Информация : Audio Video Interleave
Размер файла : 628 Мбайт
Продолжительность : 46 м.
Общий поток : 1902 Кбит/сек
Программа кодирования : VirtualDubMod 1.5.10.3 | www.virtualdub-fr.org || (build 2550/release)
Библиотека кодирования : VirtualDubMod build 2550/release
Видео
Идентификатор : 0
Формат : MPEG-4 Visual
Профиль формата : Advanced Simple@L5
Параметр BVOP формата : 2
Параметр QPel формата : Нет
Параметр GMC формата : Без точки перехода
Параметр матрицы формата : Выборочная
Идентификатор кодека : XVID
Идентификатор кодека/Подсказка : XviD
Продолжительность : 46 м.
Битрейт : 1700 Кбит/сек
Ширина : 704 пикселя
Высота : 400 пикселей
Соотношение сторон : 16:9
Частота кадров : 25,000 кадров/сек
Цветовое пространство : YUV
Субдискретизация насыщенности : 4:2:0
Битовая глубина : 8 бит
Тип развёртки : Прогрессивная
Метод сжатия : С потерями
Бит/(Пиксели*Кадры) : 0.241
Размер потока : 561 Мбайт (89%)
Библиотека кодирования : XviD 73
Аудио
Идентификатор : 1
Формат : AC-3
Формат/Информация : Audio Coding 3
Расширение режима : CM (complete main)
Параметр Endianness формата : Big
Идентификатор кодека : 2000
Продолжительность : 46 м.
Вид битрейта : Постоянный
Битрейт : 192 Кбит/сек
Каналы : 2 канала
Расположение каналов : Front: L R
Частота : 48,0 КГц
Битовая глубина : 16 бит
Метод сжатия : С потерями
Размер потока : 63,4 Мбайт (10%)
Выравнивание : Разделение по промежуткам
Продолжительность промежутка : 40 мс. (1,00 видеокадр)
Время предзагрузки промежутка : 500 мс.



Релиз от:
Rip by: Vovan366


_________________
Проголосуй за трекер Открытый торрент трекер - RUS-MEDIA.ORG

Проголосуй Открытый торрент трекер - RUS-MEDIA.ORG


Вернуться к началу
 Профиль Отправить личное сообщение  
 
   Похожие торренты   Автор   Торрент   Размер 
В этой теме нет новых непрочитанных сообщений. Мамаша / Mom [S01] [Комедия, ситком, 2013] WEB-DLRip, Dub [Paramount Comedy]

salma3

0 | 0

5.47 ГБ

В этой теме нет новых непрочитанных сообщений. Мамаша / Mom [S02] [Комедия, ситком, 2014] WEB-DLRip, Dub [Paramount Comedy]

salma3

0 | 0

5.47 ГБ

В этой теме нет новых непрочитанных сообщений. Форт Боярд: Возвращение [01x01-03 из 10] [ТВ-шоу, приключения, 2019] WEB-DLRip

[ На страницу: 1, 2, 3, 4, 5 ]

K15

73 | 99

3.19 ГБ

В этой теме нет новых непрочитанных сообщений. Утреннее шоу / The Morning Show [01х01 из 10] [драма, 2019] WEB-DLRip, Mvo [NewStudio]

salma3

0 | 0

909.61 МБ

В этой теме нет новых непрочитанных сообщений. Утреннее шоу / The Morning Show [S01-02] [Драма, 2019-2021] WEB-DLRip, Dub [Пифагор]

salma3

0 | 0

14.15 ГБ

В этой теме нет новых непрочитанных сообщений. Гусар / Gusar (Сезон 1 , (Сезон 1 , Серия 1-18 из 18 ) (Заур Болотаев, Рустам Мосафир) [2020, Комедия , WEB-DLRip - HEVC - 1080p]

Враг Нароода

2 | 0

10.46 ГБ

В этой теме нет новых непрочитанных сообщений. Форсаж: Хоббс и Шоу / Fast & Furious Presents: Hobbs & Shaw [Боевик, приключения, 2019] WEB-DLRip, Dub [iTunes]

salma3

0 | 0

2.18 ГБ


Начать новую тему Ответить на тему  [ 1 сообщение ] 




Для Мосгорсуда, Роскомнадзора и рекламодателей:: rstracker[собака]yandex.ru
cron