Торрент файл
скачать торрент магнет ссылка Добавлен: 11 мар 2015, 12:14
Размер: 14.19 ГБ
Сидеров: 29
Личеров: 25
Автор

СообщениеДобавлено: 04 мар 2015, 10:09 

Не в сети
Зам. Админа
Аватара пользователя
Дата регистрации:
02 дек 2010, 12:39
Спасибо: 12460 / 214
Сообщения: 27968
Год выхода: 2015
Жанр: Автошоу
Режиссер: British Broadcasting Corporation
В ролях: Джереми Кларксон, Ричард Хаммонд, Джеймс Мэй, Стиг

О фильме:
Top Gear (англ. Top Gear) — популярная английская телепередача, посвящённая автомобилям. Первые выпуски передачи появились в 1977 году. Эта передача была просто пересказ журнала, в течение долгого времени формат передачи не менялся. Но в 2002 году, произошел перезапуск цикла, и вместо сухого пересказа, появился современный «Top Gear», с юмором, приколами, и фирменными тестами. Аудитория программ в странах официальной трансляции составляет около 350 миллионов человек.

Качество: HDTVRip [720p]
Видео: AVC, 1280x720, 25 fps, 2644 Kbit/s
Аудио: AC3, 48 kHz, 2 ch, 192 kbit/s [Русский, Английский]
Продолжительность: 01:02:01
Перевод: Профессиональный (многоголосный) [AlexFilm]

DownloadsTop.Gear.s22e06.HDTVRip.720p.mkv
  General
    Unique ID : 189890427745187590610012522284770410124 (0x8EDB90EB94FCB686A256FB30138C3E8C)
    Complete name : DownloadsTop.Gear.s22e06.HDTVRip.720p.mkv
    Format : Matroska
    Format version : Version 4 / Version 2
    File size : 1.34 GiB
    Duration : 1h 2mn
    Overall bit rate : 3 089 Kbps
    Movie name : Top Gear 22x06 @ AlexFilm
    Encoded date : UTC 2015-03-03 19:55:58
    Writing application : mkvmerge v6.6.0 ('The Edge Of The In Between') built on Dec  1 2013 17:55:00
    Writing library : libebml v1.3.0 + libmatroska v1.4.1
  Video #1
    ID : 1
    Format : AVC
    Format/Info : Advanced Video Codec
    Format profile : High@L4.1
    Format settings, CABAC : Yes
    Format settings, ReFrames : 5 frames
    Codec ID : V_MPEG4/ISO/AVC
    Duration : 1h 2mn
    Bit rate : 2 644 Kbps
    Width : 1 280 pixels
    Height : 720 pixels
    Display aspect ratio : 16:9
    Frame rate mode : Constant
    Frame rate : 25.000 fps
    Color space : YUV
    Chroma subsampling : 4:2:0
    Bit depth : 8 bits
    Scan type : Progressive
    Bits/(Pixel*Frame) : 0.115
    Stream size : 1.15 GiB (86%)
    Writing library : x264 core 146 r2538 121396c
    Encoding settings : cabac=1 / ref=5 / deblock=1:0:0 / analyse=0x3:0x113 / me=umh / subme=8 / psy=1 / psy_rd=1.00:0.00 / mixed_ref=1 / me_range=16 / chroma_me=1 / trellis=1 / 8x8dct=1 / cqm=0 / deadzone=21,11 / fast_pskip=1 / chroma_qp_offset=-2 / threads=12 / lookahead_threads=2 / sliced_threads=0 / nr=0 / decimate=1 / interlaced=0 / bluray_compat=0 / constrained_intra=0 / bframes=3 / b_pyramid=2 / b_adapt=2 / b_bias=0 / direct=3 / weightb=1 / open_gop=0 / weightp=2 / keyint=250 / keyint_min=25 / scenecut=40 / intra_refresh=0 / rc_lookahead=50 / rc=crf / mbtree=1 / crf=21.0 / qcomp=0.60 / qpmin=0 / qpmax=69 / qpstep=4 / ip_ratio=1.40 / aq=1:1.00
    Language : English
    Default : Yes
    Forced : No
  Audio #2
    ID : 2
    Format : AC-3
    Format/Info : Audio Coding 3
    Mode extension : CM (complete main)
    Format settings, Endianness : Big
    Codec ID : A_AC3
    Duration : 1h 2mn
    Bit rate mode : Constant
    Bit rate : 192 Kbps
    Channel(s) : 2 channels
    Channel positions : Front: L R
    Sampling rate : 48.0 KHz
    Bit depth : 16 bits
    Compression mode : Lossy
    Stream size : 85.2 MiB (6%)
    Title : DD2.0 AlexFilm
    Language : Russian
    Default : Yes
    Forced : No
  Audio #3
    ID : 3
    Format : AC-3
    Format/Info : Audio Coding 3
    Mode extension : CM (complete main)
    Format settings, Endianness : Big
    Codec ID : A_AC3
    Duration : 1h 2mn
    Bit rate mode : Constant
    Bit rate : 192 Kbps
    Channel(s) : 2 channels
    Channel positions : Front: L R
    Sampling rate : 48.0 KHz
    Bit depth : 16 bits
    Compression mode : Lossy
    Stream size : 85.2 MiB (6%)
    Title : DD2.0 Original
    Language : English
    Default : No
    Forced : No








реклама партнёра


Вернуться к началу
 Профиль  
 
   Похожие торренты   Автор   Торрент   Размер 
В этой теме нет новых непрочитанных сообщений. Топ Гир / Top Gear [Season 22, episode 5] (Энди Уилмэн) [Авто-шоу, 2015] HDTVRip 720p, Mvo

Dracon

5 | 2

2.04 ГБ

В этой теме нет новых непрочитанных сообщений. Топ Гир / Top Gear [Season 22, episode 4] (Энди Уилмэн) [Авто-шоу, 2015] HDTVRip 720p, Mvo

Dracon

8 | 2

1.86 ГБ

В этой теме нет новых непрочитанных сообщений. Топ Гир / Top Gear [Season 22, episode 1-3] (Энди Уилмэн) [Авто-шоу, 2015] HDTVRip 720p, Mvo

Dracon

58 | 46

4.27 ГБ

В этой теме нет новых непрочитанных сообщений. Топ Гир / Top Gear [Season 22, episode 1] (Энди Уилмэн) [Авто-шоу, 2015] HDTVRip 720p, Mvo

Dracon

3 | 2

1.8 ГБ

В этой теме нет новых непрочитанных сообщений. Топ Гир  / Top Gear [Season 22, episode 4] (Энди Уилмэн) [Авто-шоу, 2015] HDTVRip, Mvo

Dracon

1 | 2

894.47 МБ

В этой теме нет новых непрочитанных сообщений. Топ Гир /  Top Gear [Season 22, episode 5] (Энди Уилмэн) [Авто-шоу, 2015] HDTVRip, Mvo

Dracon

0 | 2

891.29 МБ

В этой теме нет новых непрочитанных сообщений. Топ Гир / Top Gear [Season 22, episode 1-7] (Энди Уилмэн) [Авто-шоу, 2015] HDTVRip, Mvo

Dracon


Начать новую тему Ответить на тему  [ 1 сообщение ] 




Для Мосгорсуда, Роскомнадзора и рекламодателей:: mosgorsud-torrent[собачка]yandex.ru