Торрент файл
скачать торрент магнет ссылка Добавлен: 25 фев 2015, 11:56
Размер: 2.04 ГБ
Сидеров: 5
Личеров: 2
Автор

СообщениеДобавлено: 25 фев 2015, 11:56 

Не в сети
Зам. Админа
Аватара пользователя
Дата регистрации:
02 дек 2010, 12:39
Спасибо: 12461 / 214
Сообщения: 27968
Год выхода: 2015
Жанр: Автошоу
Режиссер: British Broadcasting Corporation
В ролях: Джереми Кларксон, Ричард Хаммонд, Джеймс Мэй, Стиг

О фильме:
Top Gear (англ. Top Gear) — популярная английская телепередача, посвящённая автомобилям. Первые выпуски передачи появились в 1977 году. Эта передача была просто пересказ журнала, в течение долгого времени формат передачи не менялся. Но в 2002 году, произошел перезапуск цикла, и вместо сухого пересказа, появился современный «Top Gear», с юмором, приколами, и фирменными тестами. Аудитория программ в странах официальной трансляции составляет около 350 миллионов человек.

Качество: HDTVRip [720p]
Видео: AVC, 1280x720, 25 fps, 4218 Kbit/s
Аудио: AC3, 48 kHz, 2 ch, 192 kbit/s [Русский, Английский]
Продолжительность: 01:02:10
Перевод: Профессиональный (многоголосный) [AlexFilm]

DownloadsTop.Gear.s22e05.HDTV.720p.mkv
  General
    Unique ID : 220211357343643199657251817170128403266 (0xA5AB2A2B1AD8737D872CA761EEDCFB42)
    Complete name : DownloadsTop.Gear.s22e05.HDTV.720p.mkv
    Format : Matroska
    Format version : Version 4 / Version 2
    File size : 2.04 GiB
    Duration : 1h 2mn
    Overall bit rate : 4 695 Kbps
    Movie name : Top Gear 22x05 @ AlexFilm
    Encoded date : UTC 2015-02-24 22:13:58
    Writing application : mkvmerge v6.6.0 ('The Edge Of The In Between') built on Dec  1 2013 17:55:00
    Writing library : libebml v1.3.0 + libmatroska v1.4.1
  Video #1
    ID : 1
    Format : AVC
    Format/Info : Advanced Video Codec
    Format profile : High@L4.1
    Format settings, CABAC : Yes
    Format settings, ReFrames : 9 frames
    Codec ID : V_MPEG4/ISO/AVC
    Bit rate : 4 218 Kbps
    Width : 1 280 pixels
    Height : 720 pixels
    Display aspect ratio : 16:9
    Frame rate mode : Variable
    Original frame rate : 25.000 fps
    Color space : YUV
    Chroma subsampling : 4:2:0
    Bit depth : 8 bits
    Scan type : Progressive
    Title : Frame rate: 25/50 fps
    Writing library : x264 core 133 r2334 a3ac64b
    Encoding settings : cabac=1 / ref=9 / deblock=1:0:0 / analyse=0x3:0x113 / me=umh / subme=10 / psy=1 / psy_rd=1.00:0.00 / mixed_ref=1 / me_range=24 / chroma_me=1 / trellis=2 / 8x8dct=1 / cqm=0 / deadzone=21,11 / fast_pskip=1 / chroma_qp_offset=-2 / threads=6 / lookahead_threads=1 / sliced_threads=0 / nr=0 / decimate=1 / interlaced=0 / bluray_compat=0 / constrained_intra=0 / bframes=8 / b_pyramid=2 / b_adapt=2 / b_bias=0 / direct=3 / weightb=1 / open_gop=0 / weightp=2 / keyint=250 / keyint_min=25 / scenecut=40 / intra_refresh=0 / rc_lookahead=60 / rc=crf / mbtree=1 / crf=18.0 / qcomp=0.60 / qpmin=0 / qpmax=69 / qpstep=4 / ip_ratio=1.40 / aq=1:1.00
    Language : English
    Default : Yes
    Forced : No
  Audio #2
    ID : 2
    Format : AC-3
    Format/Info : Audio Coding 3
    Mode extension : CM (complete main)
    Format settings, Endianness : Big
    Codec ID : A_AC3
    Duration : 1h 2mn
    Bit rate mode : Constant
    Bit rate : 192 Kbps
    Channel(s) : 2 channels
    Channel positions : Front: L R
    Sampling rate : 48.0 KHz
    Bit depth : 16 bits
    Compression mode : Lossy
    Stream size : 85.4 MiB (4%)
    Title : DD2.0 AlexFilm
    Language : Russian
    Default : Yes
    Forced : No
  Audio #3
    ID : 3
    Format : AC-3
    Format/Info : Audio Coding 3
    Mode extension : CM (complete main)
    Format settings, Endianness : Big
    Codec ID : A_AC3
    Duration : 1h 2mn
    Bit rate mode : Constant
    Bit rate : 192 Kbps
    Channel(s) : 2 channels
    Channel positions : Front: L R
    Sampling rate : 48.0 KHz
    Bit depth : 16 bits
    Compression mode : Lossy
    Stream size : 85.4 MiB (4%)
    Title : DD2.0 Original
    Language : English
    Default : No
    Forced : No








реклама партнёра


Вернуться к началу
 Профиль  
 
   Похожие торренты   Автор   Торрент   Размер 
В этой теме нет новых непрочитанных сообщений. Топ Гир / Top Gear [Season 22, episode 4] (Энди Уилмэн) [Авто-шоу, 2015] HDTVRip 720p, Mvo

Dracon

8 | 2

1.86 ГБ

В этой теме нет новых непрочитанных сообщений. Топ Гир / Top Gear [Season 22, episode 1-7] (Энди Уилмэн) [Авто-шоу, 2015] HDTVRip 720p, Mvo

Dracon

29 | 25

14.19 ГБ

В этой теме нет новых непрочитанных сообщений. Топ Гир / Top Gear [Season 22, episode 1-3] (Энди Уилмэн) [Авто-шоу, 2015] HDTVRip 720p, Mvo

Dracon

58 | 46

4.27 ГБ

В этой теме нет новых непрочитанных сообщений. Топ Гир / Top Gear [Season 22, episode 1] (Энди Уилмэн) [Авто-шоу, 2015] HDTVRip 720p, Mvo

Dracon

3 | 2

1.8 ГБ

В этой теме нет новых непрочитанных сообщений. Топ Гир / Top Gear [Season 22, episode 1-3] (Энди Уилмэн) [Авто-шоу, 2015] HDTVRip, Mvo

Dracon

3 | 4

2.35 ГБ

В этой теме нет новых непрочитанных сообщений. Топ Гир /  Top Gear [Season 22, episode 5] (Энди Уилмэн) [Авто-шоу, 2015] HDTVRip, Mvo

Dracon

0 | 2

891.29 МБ

В этой теме нет новых непрочитанных сообщений. Топ Гир  / Top Gear [Season 22, episode 4] (Энди Уилмэн) [Авто-шоу, 2015] HDTVRip, Mvo

Dracon

1 | 2

894.47 МБ


Начать новую тему Ответить на тему  [ 1 сообщение ] 




Для Мосгорсуда, Роскомнадзора и рекламодателей:: mosgorsud-torrent[собачка]yandex.ru