Торрент файл
скачать торрент магнет ссылка Добавлен: 11 фев 2015, 11:28
Размер: 4.27 ГБ
Сидеров: 58
Личеров: 46
Автор

СообщениеДобавлено: 04 фев 2015, 11:13 

Не в сети
Зам. Админа
Аватара пользователя
Дата регистрации:
02 дек 2010, 12:39
Спасибо: 12460 / 214
Сообщения: 27968
Год выхода: 2015
Жанр: Автошоу
Режиссер: British Broadcasting Corporation
В ролях: Джереми Кларксон, Ричард Хаммонд, Джеймс Мэй, Стиг

О фильме:
Top Gear (англ. Top Gear) — популярная английская телепередача, посвящённая автомобилям. Первые выпуски передачи появились в 1977 году. Эта передача была просто пересказ журнала, в течение долгого времени формат передачи не менялся. Но в 2002 году, произошел перезапуск цикла, и вместо сухого пересказа, появился современный «Top Gear», с юмором, приколами, и фирменными тестами. Аудитория программ в странах официальной трансляции составляет около 350 миллионов человек.

Качество: HDTVRip [720р]
Видео: AVC, 1280x720, 25 fps, 2700 Kbit/s
Аудио: AC3, 48 kHz, 2 ch, 192 kbit/s [Русский / Английский]
Продолжительность: 01:02:20
Перевод: Любительский (многоголосный) [Jetvis Studio & RG.paravozik]

DownloadsTop.Gear.UK.S22E02.mkv
  General
    Unique ID : 232611386585588631086967170221680698732 (0xAEFF52CFC93454198BCBAED1A895256C)
    Complete name : DownloadsTop.Gear.UK.S22E02.mkv
    Format : Matroska
    Format version : Version 4 / Version 2
    File size : 1.34 GiB
    Duration : 1h 2mn
    Overall bit rate : 3 081 Kbps
    Encoded date : UTC 2015-02-03 22:25:13
    Writing application : mkvmerge v7.4.0 ('Circles') 64bit built on Dec 12 2014 12:19:56
    Writing library : libebml v1.3.0 + libmatroska v1.4.1
    DURATION : 01:02:20.096000000
    NUMBER_OF_FRAMES : 116878
    NUMBER_OF_BYTES : 89762304
    _STATISTICS_WRITING_APP : mkvmerge v7.4.0 ('Circles') 64bit built on Dec 12 2014 12:19:56
    _STATISTICS_WRITING_DATE_UTC : 2015-02-03 22:25:13
    _STATISTICS_TAGS : BPS DURATION NUMBER_OF_FRAMES NUMBER_OF_BYTES
  Video #1
    ID : 1
    Format : AVC
    Format/Info : Advanced Video Codec
    Format profile : High@L4.1
    Format settings, CABAC : Yes
    Format settings, ReFrames : 3 frames
    Codec ID : V_MPEG4/ISO/AVC
    Duration : 1h 2mn
    Bit rate : 2 700 Kbps
    Width : 1 280 pixels
    Height : 720 pixels
    Display aspect ratio : 16:9
    Frame rate mode : Constant
    Frame rate : 25.000 fps
    Color space : YUV
    Chroma subsampling : 4:2:0
    Bit depth : 8 bits
    Scan type : Progressive
    Bits/(Pixel*Frame) : 0.117
    Stream size : 1.15 GiB (86%)
    Writing library : x264 core 116 r2019M 9cc407d
    Encoding settings : cabac=1 / ref=3 / deblock=1:0:0 / analyse=0x3:0x133 / me=hex / subme=7 / psy=1 / psy_rd=1.00:0.20 / mixed_ref=1 / me_range=16 / chroma_me=1 / trellis=1 / 8x8dct=1 / cqm=0 / deadzone=21,11 / fast_pskip=1 / chroma_qp_offset=-3 / threads=8 / sliced_threads=0 / nr=0 / decimate=1 / interlaced=0 / bluray_compat=0 / constrained_intra=0 / bframes=3 / b_pyramid=1 / b_adapt=2 / b_bias=0 / direct=3 / weightb=1 / open_gop=0 / weightp=2 / keyint=250 / keyint_min=25 / scenecut=40 / intra_refresh=0 / rc_lookahead=40 / rc=2pass / mbtree=1 / bitrate=2700 / ratetol=1.0 / qcomp=0.60 / qpmin=10 / qpmax=51 / qpstep=4 / cplxblur=20.0 / qblur=0.5 / ip_ratio=1.40 / aq=1:1.00
    Default : Yes
    Forced : No
    DURATION : 01:02:20.160000000
    NUMBER_OF_FRAMES : 116878
    NUMBER_OF_BYTES : 89762304
    _STATISTICS_WRITING_APP : mkvmerge v7.4.0 ('Circles') 64bit built on Dec 12 2014 12:19:56
    _STATISTICS_WRITING_DATE_UTC : 2015-02-03 22:25:13
    _STATISTICS_TAGS : BPS DURATION NUMBER_OF_FRAMES NUMBER_OF_BYTES
  Audio #2
    ID : 2
    Format : AC-3
    Format/Info : Audio Coding 3
    Mode extension : CM (complete main)
    Format settings, Endianness : Big
    Codec ID : A_AC3
    Duration : 1h 2mn
    Bit rate mode : Constant
    Bit rate : 192 Kbps
    Channel(s) : 2 channels
    Channel positions : Front: L R
    Sampling rate : 48.0 KHz
    Bit depth : 16 bits
    Compression mode : Lossy
    Stream size : 85.6 MiB (6%)
    Title : Jetvis Studio
    Language : Russian
    Default : Yes
    Forced : No
    DURATION : 01:02:20.120000000
    NUMBER_OF_FRAMES : 93503
    NUMBER_OF_BYTES : 1259890031
    _STATISTICS_WRITING_APP : mkvmerge v7.4.0 ('Circles') 64bit built on Dec 12 2014 12:19:56
    _STATISTICS_WRITING_DATE_UTC : 2015-02-03 22:25:13
    _STATISTICS_TAGS : BPS DURATION NUMBER_OF_FRAMES NUMBER_OF_BYTES
  Audio #3
    ID : 3
    Format : AC-3
    Format/Info : Audio Coding 3
    Mode extension : CM (complete main)
    Format settings, Endianness : Big
    Codec ID : A_AC3
    Duration : 1h 2mn
    Bit rate mode : Constant
    Bit rate : 192 Kbps
    Channel(s) : 2 channels
    Channel positions : Front: L R
    Sampling rate : 48.0 KHz
    Bit depth : 16 bits
    Compression mode : Lossy
    Stream size : 85.6 MiB (6%)
    Title : Original
    Language : English
    Default : No
    Forced : No








реклама партнёра


Вернуться к началу
 Профиль  
 
   Похожие торренты   Автор   Торрент   Размер 
В этой теме нет новых непрочитанных сообщений. Топ Гир / Top Gear [Season 22, episode 5] (Энди Уилмэн) [Авто-шоу, 2015] HDTVRip 720p, Mvo

Dracon

5 | 2

2.04 ГБ

В этой теме нет новых непрочитанных сообщений. Топ Гир / Top Gear [Season 22, episode 1] (Энди Уилмэн) [Авто-шоу, 2015] HDTVRip 720p, Mvo

Dracon

3 | 2

1.8 ГБ

В этой теме нет новых непрочитанных сообщений. Топ Гир / Top Gear [Season 22, episode 1-7] (Энди Уилмэн) [Авто-шоу, 2015] HDTVRip 720p, Mvo

Dracon

29 | 25

14.19 ГБ

В этой теме нет новых непрочитанных сообщений. Топ Гир / Top Gear [Season 22, episode 4] (Энди Уилмэн) [Авто-шоу, 2015] HDTVRip 720p, Mvo

Dracon

8 | 2

1.86 ГБ

В этой теме нет новых непрочитанных сообщений. Топ Гир / Top Gear [Season 22, episode 1-3] (Энди Уилмэн) [Авто-шоу, 2015] HDTVRip, Mvo

Dracon

3 | 4

2.35 ГБ

В этой теме нет новых непрочитанных сообщений. Топ Гир / Top Gear [Season 22, episode 1-7] (Энди Уилмэн) [Авто-шоу, 2015] HDTVRip, Mvo

Dracon

В этой теме нет новых непрочитанных сообщений. Топ Гир  / Top Gear [Season 22, episode 4] (Энди Уилмэн) [Авто-шоу, 2015] HDTVRip, Mvo

Dracon

1 | 2

894.47 МБ


Начать новую тему Ответить на тему  [ 1 сообщение ] 




Для Мосгорсуда, Роскомнадзора и рекламодателей:: mosgorsud-torrent[собачка]yandex.ru