Торрент файл
скачать торрент магнет ссылка Добавлен: 10 дек 2014, 21:13
Размер: 7.34 ГБ
Сидеров: 3
Личеров: 4
Автор

СообщениеДобавлено: 10 дек 2014, 21:13 

Не в сети
Зам. Админа
Аватара пользователя
Дата регистрации:
02 дек 2010, 12:39
Спасибо: 12461 / 214
Сообщения: 27968
Год выхода: 2014
Жанр: Научно-популярные,Юмор
Режиссер: Фил Чурчуорд
В ролях: Джереми Кларксон, Ричард Хаммонд, Стиг

О фильме: В 2013 году Джереми Кларксон и Ричард Хаммонд попытались совершить поездку, которая должна была стать идеальной. Всё началось хорошо, но кончилось довольно плохо. В этот раз дуэт из "Топ Гира" пытается совершить вторую попытку в надежде избежать неприятностей вроде задержания французской полицией.
Добро пожаловать в "Идеальное путешествие 2". И вновь Кларксон и Хаммонд ищут радость и идеал среди целого ряда быстрых и прекрасных автомобилей, едущих по славным дорогам среди живописных видов под средиземноморским солнцем. В поиске идеала дуэту предстоит проделать массу забавных трюков и выдержать несколько нелепых испытаний, кульминацией которых станет гонка на острове Капри. Топ Гир - Идеальное путешествие 2. В этот раз, и впрямь идеальное. Если не считать кое-каких мелочей.



Качество: BDRip [720p]
Видео: MPEG4 (AVC), 1280x720, 25 fps, ~7880 kbit/s
Аудио #1: DTS, 48 kHz, 6 ch, ~15010 kbit/s  русский
Аудио #2: DTS, 48 kHz, 6 ch, ~15010 kbit/s  английский
Продолжительность: 01:34:28
Перевод: Профессиональный (многоголосный)
Субтитры: Aнглийские

Общее
Уникальный идентификатор                 : 183226489688004332040540349328191716995 (0x89D8236840806E97BED8FCA7049CFE83)
Полное имя                               : Top.Gear.The.Perfect.Road.Trip.2.2014.BDRip.720p.Rus.Eng.mkv
Формат                                   : Matroska
Версия формата                           : Version 4 / Version 2
Размер файла                             : 7,34 Гбайт
Продолжительность                        : 1 ч. 34 м.
Общий поток                              : 11,1 Мбит/сек
Название фильма                          : Top Gear: The Perfect Road Trip 2 @ AlexFilm
Дата кодирования                         : UTC 2014-12-10 03:56:38
Программа кодирования                    : mkvmerge v6.6.0 ('The Edge Of The In Between') built on Dec  1 2013 17:55:00
Библиотека кодирования                   : libebml v1.3.0 + libmatroska v1.4.1

Видео
Идентификатор                            : 1
Формат                                   : AVC
Формат/Информация                        : Advanced Video Codec
Профиль формата                          : High@L4.1
Параметр CABAC формата                   : Да
Параметр ReFrames формата                : 9 кадров
Идентификатор кодека                     : V_MPEG4/ISO/AVC
Продолжительность                        : 1 ч. 34 м.
Битрейт                                  : 7879 Кбит/сек
Ширина                                   : 1280 пикселей
Высота                                   : 720 пикселей
Соотношение сторон                       : 16:9
Режим частоты кадров                     : Постоянный
Частота кадров                           : 25,000 кадров/сек
Цветовое пространство                    : YUV
Субдискретизация насыщенности            : 4:2:0
Битовая глубина                          : 8 бит
Тип развёртки                            : Прогрессивная
Бит/(Пиксели*Кадры)                      : 0.342
Размер потока                            : 5,20 Гбайт (71%)
Библиотека кодирования                   : x264 core 142 r2479 dd79a61
Настройки программы                      : cabac=1 / ref=9 / deblock=1:-3:-3 / analyse=0x3:0x133 / me=umh / subme=10 / psy=1 / psy_rd=1.00:0.00 / mixed_ref=1 / me_range=48 / chroma_me=1 / trellis=2 / 8x8dct=1 / cqm=0 / deadzone=21,11 / fast_pskip=1 / chroma_qp_offset=-2 / threads=6 / lookahead_threads=1 / sliced_threads=0 / nr=0 / decimate=1 / interlaced=0 / bluray_compat=0 / constrained_intra=0 / bframes=9 / b_pyramid=2 / b_adapt=2 / b_bias=0 / direct=3 / weightb=1 / open_gop=0 / weightp=2 / keyint=250 / keyint_min=25 / scenecut=40 / intra_refresh=0 / rc_lookahead=150 / rc=crf / mbtree=0 / crf=17.0 / qcomp=0.70 / qpmin=0 / qpmax=69 / qpstep=4 / vbv_maxrate=50000 / vbv_bufsize=62500 / crf_max=0.0 / nal_hrd=none / filler=0 / ip_ratio=1.30 / pb_ratio=1.20 / aq=1:0.75
Язык                                     : English
Default                                  : Да
Forced                                   : Нет

Аудио #1
Идентификатор                            : 2
Формат                                   : DTS
Формат/Информация                        : Digital Theater Systems
Режим                                    : 16
Параметр Endianness формата              : Big
Идентификатор кодека                     : A_DTS
Продолжительность                        : 1 ч. 34 м.
Вид битрейта                             : Постоянный
Битрейт                                  : 1510 Кбит/сек
Каналы                                   : 6 каналов
Расположение каналов                     : Front: L C R, Side: L R, LFE
Частота                                  : 48,0 КГц
Битовая глубина                          : 16 бит
Метод сжатия                             : С потерями
Размер потока                            : 1020 Мбайт (14%)
Заголовок                                : DTS 5.1 AlexFilm
Язык                                     : Russian
Default                                  : Да
Forced                                   : Нет

Аудио #2
Идентификатор                            : 3
Формат                                   : DTS
Формат/Информация                        : Digital Theater Systems
Режим                                    : 16
Параметр Endianness формата              : Big
Идентификатор кодека                     : A_DTS
Продолжительность                        : 1 ч. 34 м.
Вид битрейта                             : Постоянный
Битрейт                                  : 1509 Кбит/сек
Каналы                                   : 6 каналов
Расположение каналов                     : Front: L C R, Side: L R, LFE
Частота                                  : 48,0 КГц
Битовая глубина                          : 16 бит
Метод сжатия                             : С потерями
Размер потока                            : 1020 Мбайт (14%)
Заголовок                                : DTS 5.1 Original
Язык                                     : English
Default                                  : Нет
Forced                                   : Нет

Текст
Идентификатор                            : 4
Формат                                   : UTF-8
Идентификатор кодека                     : S_TEXT/UTF8
Идентификатор кодека/Информация          : UTF-8 Plain Text
Заголовок                                : SDH
Язык                                     : English
Default                                  : Нет
Forced                                   : Нет

Меню
00:00:00.000                             : en:01. A New Start In Venice
00:03:23.320                             : en:02. McLaren 650S Spider v Lamborghini Huracan
00:19:35.640                             : en:03. Jaguar F Type R Coupe v BMW M4 Coupe
00:33:17.000                             : en:04. McLaren P1
00:40:01.200                             : en:05. Hammond's Ferrari Dust-up
00:52:06.000                             : en:06. Mini Cooper S v Audi S1
01:01:35.640                             : en:07. Alfa Romeo 4C v Corvette Stingray
01:15:21.800                             : en:08. Mercedes-Benz A45 AMG v VW Golf R
01:22:40.600                             : en:09. Alfa Romeo Giulia Spider & Alfa Romeo 2600 Spider
01:27:22.000                             : en:10. The Race to Capri - Tornado Power Boats
01:31:56.280                             : en:11. Capri Mk1 3000 GXL v Capri 2.8 Injection Special

Релиз: ALEXFILM
Перевод: Константин Кривоногов
Монтаж и сведение звука: Сергей Мартынов
Роли озвучивали: Роман Сопко, Александр Дасевич, Татьяна Манетина
















реклама партнёра


Вернуться к началу
 Профиль  
 
   Похожие торренты   Автор   Торрент   Размер 
В этой теме нет новых непрочитанных сообщений. Топ Гир: Идеальное Путешествие 2 / Top Gear: The Perfect Road Trip 2 [2014, Автошоу, BDRip 720p | Jetvis Studio & RG.paravozik] dvo

Nickolas3435

2347 | 157

2.7 ГБ

В этой теме нет новых непрочитанных сообщений. Топ Гир: Идеальное путешествие 2 / Top Gear: The Perfect Road Trip 2 [Автошоу, приключения, 2014] HDRip, mvo

Dracon

1 | 4

1.49 ГБ

В этой теме нет новых непрочитанных сообщений. Большое путешествие / National Lampoon's Senior Trip [комедия, приключения, 1995] HDTVRip 720p, Avo+Mvo

salma3

74 | 2

2.36 ГБ

В этой теме нет новых непрочитанных сообщений. Папина дочка / College Road Trip [Комедия, драма, приключения, семейный, 2008] BDRip 720р, Mvo+Sub

salma3

52 | 8

4.79 ГБ

В этой теме нет новых непрочитанных сообщений. Большое путешествие / National Lampoon's Senior Trip [комедия, приключения, 1995] DVDRip, Mvo

salma3

26 | 1

1.31 ГБ

В этой теме нет новых непрочитанных сообщений. Путешествие Гектора в поисках счастья / Hector and the Search for Happiness (Питер Челсом) [Драма, комедия, приключения, 2014] BDRip 720p, Dub [iTunes]

Dracon

22 | 6

4.68 ГБ

В этой теме нет новых непрочитанных сообщений. Путь в Палому / Road to Paloma [триллер, драма, 2014] BDRip 720p, avo

Dracon

39 | 2

3.4 ГБ


Начать новую тему Ответить на тему  [ 1 сообщение ] 




Для Мосгорсуда, Роскомнадзора и рекламодателей:: mosgorsud-torrent[собачка]yandex.ru