Торрент файл
скачать торрент магнет ссылка Добавлен: 23 ноя 2014, 21:44
Размер: 3.15 ГБ
Сидеров: 5
Личеров: 3
Автор

СообщениеДобавлено: 23 ноя 2014, 21:44 

Не в сети
Зам. Админа
Аватара пользователя
Дата регистрации:
02 дек 2010, 12:39
Спасибо: 12458 / 214
Сообщения: 27968
Год выхода: 2014
Жанр: Юмор
Режиссер: ТК Первый
Ведущий: Александр Масляков

Играют:

Сборная РУДН, Москва
«Плохая компания», сборная Красноярского края
Сборная Физтеха, Долгопрудный
«КемБридж» (сборная КемТИПП), Кемерово
«Саратов», Саратов
Сборная МФЮА, Москва-Волгоград – гость кубка

Качество: HDTVRip[720p]
Видео: MPEG-4 AVC, 1280x720, 25 fps, ~4000 kbps
Аудио: AC-3, 2ch, 48 мГц, 192 кбит/сек
Продолжительность: 01:47:28
Перевод: Не требуется


General
Unique ID                      : 188291361708651282279283326249350079125 (0x8DA798E0AF3DDE09A1BBB1A7F54A2295)
Complete name                  : D:ТОРРЕНТЫКВН.Кубок мэра.23.11.2014.HDTV.720.mkv
Format                         : Matroska
Format version                 : Version 2
File size                      : 3.15 GiB
Duration                       : 1h 47mn
Overall bit rate               : 4 194 Kbps
Encoded date                   : UTC 2014-11-23 15:46:54
Writing application            : mkvmerge v6.1.0 ('Old Devil') built on Mar  4 2013 09:10:42
Writing library                : libebml v1.3.0 + libmatroska v1.4.0

Video
ID                             : 1
Format                         : AVC
Format/Info                    : Advanced Video Codec
Format profile                 : High@L3.1
Format settings, CABAC         : Yes
Format settings, ReFrames      : 4 frames
Codec ID                       : V_MPEG4/ISO/AVC
Duration                       : 1h 47mn
Bit rate                       : 4 000 Kbps
Width                          : 1 280 pixels
Height                         : 720 pixels
Display aspect ratio           : 16:9
Frame rate mode                : Constant
Frame rate                     : 25.000 fps
Color space                    : YUV
Chroma subsampling             : 4:2:0
Bit depth                      : 8 bits
Scan type                      : Progressive
Bits/(Pixel*Frame)             : 0.174
Stream size                    : 2.94 GiB (93%)
Writing library                : x264 core 130 r2273 b3065e6
Encoding settings              : cabac=1 / ref=3 / deblock=1:-1:-1 / analyse=0x3:0x113 / me=hex / subme=7 / psy=1 / psy_rd=1.00:0.10 / mixed_ref=1 / me_range=16 / chroma_me=1 / trellis=1 / 8x8dct=1 / cqm=0 / deadzone=21,11 / fast_pskip=1 / chroma_qp_offset=-3 / threads=12 / lookahead_threads=2 / sliced_threads=0 / nr=0 / decimate=1 / interlaced=0 / bluray_compat=0 / constrained_intra=0 / bframes=3 / b_pyramid=2 / b_adapt=1 / b_bias=0 / direct=3 / weightb=1 / open_gop=0 / weightp=2 / keyint=250 / keyint_min=25 / scenecut=40 / intra_refresh=0 / rc_lookahead=40 / rc=2pass / mbtree=1 / bitrate=4000 / ratetol=1.0 / qcomp=0.60 / qpmin=0 / qpmax=69 / qpstep=4 / cplxblur=20.0 / qblur=0.5 / ip_ratio=1.40 / aq=1:1.00
Default                        : Yes
Forced                         : No

Audio
ID                             : 2
Format                         : AC-3
Format/Info                    : Audio Coding 3
Mode extension                 : CM (complete main)
Format settings, Endianness    : Big
Codec ID                       : A_AC3
Duration                       : 1h 47mn
Bit rate mode                  : Constant
Bit rate                       : 192 Kbps
Channel(s)                     : 2 channels
Channel positions              : Front: L R
Sampling rate                  : 48.0 KHz
Bit depth                      : 16 bits
Compression mode               : Lossy
Stream size                    : 148 MiB (5%)
Default                        : Yes
Forced                         : No











реклама партнёра


Вернуться к началу
 Профиль  
 
   Похожие торренты   Автор   Торрент   Размер 
В этой теме нет новых непрочитанных сообщений. КВН. Кубок мэра Москвы [22.11] (Россия) [Юмор, 2015] HDTVRip

Dracon

8335 | 1127

1.82 ГБ

В этой теме нет новых непрочитанных сообщений. КВН 2014. Высшая лига. Второй полуфинал [26.10] [2014, Юмор, HDTV 1080]

Nickolas3435

72 | 7

10.87 ГБ

В этой теме нет новых непрочитанных сообщений. КВН-2014. Высшая лига. 1/4 финала. Третья игра [Эфир от 08.06.2014] (Первый канал) [2014, Юмор, SATRip]

Nickolas3435

20 | 3

1.56 ГБ

В этой теме нет новых непрочитанных сообщений. КВН - 2015. Высшая лига. Финал [30.12] [2015, Юмор, HDTV 1080i]

Dracon

1043 | 76

8.54 ГБ

В этой теме нет новых непрочитанных сообщений. КВН 2014. Высшая лига. Второй полуфинал [26.10] [2014, Юмор, HDTVRip]

Nickolas3435

868 | 7

1.68 ГБ

В этой теме нет новых непрочитанных сообщений. КВН - 2015. Высшая лига. 1/4 финала. Игра вторая [22.05] [2015, Юмор, HDTV 1080i]

Nickolas3435

317 | 4

8.18 ГБ

В этой теме нет новых непрочитанных сообщений. КВН-2014. Высшая лига [01-11] [Юмористическая программа, 2014] HDTVRip 720p

Dracon

12 | 20

36.1 ГБ


Начать новую тему Ответить на тему  [ 1 сообщение ] 




Для Мосгорсуда, Роскомнадзора и рекламодателей:: mosgorsud-torrent[собачка]yandex.ru