Торрент файл
скачать торрент магнет ссылка Добавлен: 11 окт 2014, 12:29
Размер: 27.18 ГБ
Сидеров: 8
Личеров: 7
Автор

СообщениеДобавлено: 11 окт 2014, 12:29 

Не в сети
Зам. Админа
Аватара пользователя
Дата регистрации:
02 дек 2010, 12:39
Спасибо: 12461 / 214
Сообщения: 27968
Год выпуска: 2014
Жанр: Юмористическое шоу, импровизация
Выпущено: Россия, ТНТ, Comedy Club Production
Ведущий: Сергей Гореликов
В ролях: Павел Воля, Вадим Галыгин, Тимур Батрутдинов
О фильме: Правила просты. Каждый желающий участвовать в программе платит взнос – 10 000 рублей. Эти взносы составляют призовой фонд игры. Далее участники шутят, а рефери определяют, было ли их выступление смешным. Если нет, то претендентам придется покинуть ринг. В шоу три этапа: выступление-заявка, импровизация и суперфинал. Отсев бескомпромиссный – в последний тур проходят лишь двое. Ну, а победитель получает все деньги, внесенные побежденными за участие в программе.Поскольку во время выхода шоу дети уже спят, в «Не спать!» нет никаких ограничений, табу и священных коров. Главное – быть смешным настолько, чтобы зрителям-полуночникам глядя на тебя расхотелось спать.

Качество: WEB-DL (720p)
Видео: MPEG-4 AVC, 3050 Кбит/с, 1280x720
Аудио: AC3, 2 ch, 192 Кбит/с
Размер: 27.18 ГБ
Продолжительность: 23 х ~ 00:48:31
Язык: Русский
Общее
Уникальный идентификатор : 181993929963735195830885736112345750456 (0x88EAC1855FEF4C09A0583708A6329BB8)
Полное имя : D:ЗагрузкиNe.spat.2014.WEB-DL.720p.ExKinoRayNe.spat_01.vipusk.mkv
Формат : Matroska
Версия формата : Version 2
Размер файла : 1,13 Гбайт
Продолжительность : 48 м.
Общий поток : 3344 Кбит/сек
Дата кодирования : UTC 2014-05-24 00:07:15
Программа кодирования : mkvmerge v5.8.0 ('No Sleep / Pillow') built on Sep 2 2012 15:37:04
Библиотека кодирования : libebml v1.2.3 + libmatroska v1.3.0

Видео
Идентификатор : 1
Формат : AVC
Формат/Информация : Advanced Video Codec
Профиль формата : High@L4.0
Параметр CABAC формата : Да
Параметр ReFrames формата : 8 кадров
Идентификатор кодека : V_MPEG4/ISO/AVC
Продолжительность : 48 м.
Битрейт : 3086 Кбит/сек
Ширина : 1280 пикселей
Высота : 720 пикселей
Соотношение сторон : 16:9
Режим частоты кадров : Постоянный
Частота кадров : 25,000 кадров/сек
Цветовое пространство : YUV
Субдискретизация насыщенности : 4:2:0
Битовая глубина : 8 бит
Тип развёртки : Прогрессивная
Бит/(Пиксели*Кадры) : 0.134
Размер потока : 1,04 Гбайт (92%)
Библиотека кодирования : x264 core 136
Настройки программы : cabac=1 / ref=8 / deblock=1:-1:-1 / analyse=0x3:0x133 / me=umh / subme=9 / psy=1 / psy_rd=1.00:0.15 / mixed_ref=1 / me_range=16 / chroma_me=1 / trellis=2 / 8x8dct=1 / cqm=0 / deadzone=21,11 / fast_pskip=1 / chroma_qp_offset=-3 / threads=18 / lookahead_threads=1 / sliced_threads=0 / nr=0 / decimate=1 / interlaced=0 / bluray_compat=0 / constrained_intra=0 / bframes=3 / b_pyramid=2 / b_adapt=2 / b_bias=0 / direct=3 / weightb=1 / open_gop=0 / weightp=2 / keyint=100 / keyint_min=10 / scenecut=40 / intra_refresh=0 / rc_lookahead=60 / rc=crf / mbtree=1 / crf=17.0 / qcomp=0.60 / qpmin=0 / qpmax=69 / qpstep=4 / vbv_maxrate=3600 / vbv_bufsize=3600 / crf_max=0.0 / nal_hrd=none / ip_ratio=1.40 / aq=1:1.00
Язык : Russian
Default : Да
Forced : Да

Аудио
Идентификатор : 2
Формат : AC-3
Формат/Информация : Audio Coding 3
Расширение режима : CM (complete main)
Параметр Endianness формата : Big
Идентификатор кодека : A_AC3
Продолжительность : 48 м.
Вид битрейта : Постоянный
Битрейт : 192 Кбит/сек
Каналы : 2 канала
Расположение каналов : Front: L R
Частота : 48,0 КГц
Битовая глубина : 16 бит
Метод сжатия : С потерями
Размер потока : 66,4 Мбайт (6%)
Язык : Russian
Default : Да
Forced : Да








реклама партнёра


Вернуться к началу
 Профиль  
 
   Похожие торренты   Автор   Торрент   Размер 
В этой теме нет новых непрочитанных сообщений. Не спать! [01-43] [2014, Юмор, WEB-DLRip]

Dracon

15 | 25

27.34 ГБ

В этой теме нет новых непрочитанных сообщений. Юморина [1-10 выпуски] (Россия) [Юмор, 2015] HDTVRip

Dracon

30 | 9

12.45 ГБ

В этой теме нет новых непрочитанных сообщений. Stand Up [17] [Юмор, 2014] WEB-DLRip 720p

Dracon

13 | 2

910.28 МБ

В этой теме нет новых непрочитанных сообщений. Comedy Woman. [Юмор, 2014] WEB-DL 720p

Dracon

0 | 2

1.1 ГБ

В этой теме нет новых непрочитанных сообщений. Stand Up [Эфир от 13.04] [Юмор, 2014] WEB-DLRip 720p

Dracon

20 | 2

883.75 МБ

В этой теме нет новых непрочитанных сообщений. Stand Up [Эфир от 20.04] [Юмор, 2014] WEB-DLRip 720p

Dracon

12 | 2

944.53 МБ

В этой теме нет новых непрочитанных сообщений. Stand Up [Эфир от 11.05] [Юмор, 2014] WEB-DLRip 720p

Dracon

17 | 2

878.63 МБ


Начать новую тему Ответить на тему  [ 1 сообщение ] 




Для Мосгорсуда, Роскомнадзора и рекламодателей:: mosgorsud-torrent[собачка]yandex.ru