Торрент файл
скачать торрент магнет ссылка Добавлен: 04 окт 2013, 15:18
Размер: 558.78 МБ
Сидеров: 10
Личеров: 2
Автор

СообщениеДобавлено: 04 окт 2013, 15:18 

Не в сети
Зам. Админа
Аватара пользователя
Дата регистрации:
02 дек 2010, 12:39
Спасибо: 12458 / 214
Сообщения: 27968
Режиссер / Телекомпания: ТНТ
Русское название: Comedy Woman
Год выпуска: 2013
Жанр: ТВ-Шоу

Описание:
Пока мужчины меняют зимнюю резину в автосервисах, девушки из ComedyWoman меняют формат шоу. В новом сезоне комеди-дамы покажут все, на что они способны и остановить их не сможет никто... Даже ОН! Ведь в рамках предвыборной кампании хорошего жениха в гости ComedyWoman заглянет Второй Человек в нашей стране! Теперь в Comedy Woman всех ожидает все на 100% женское, ведь не считая Дмитрия Хрусталева на сцене и в зале будут только дамы. Впрочем, будут и исключения. Фишкой нового сезона станут новые костюмы, специально разработанные для девчонок одним модным дизайнером. Теперь в нарядах будет больше секса, а на сцене больше женских ног, которые ранее тщательно скрывались за длинными юбками. Кроме этого зрители увидят и новые декорации в стиле «Алиса в стране чудес»
Популярное шоу Сomedy Woman теперь становится на 100% женским! Здесь все по-новому: еще больше секса, голых ног, эротичных костюмов, жарких шуток, веселых закулисных перебранок и никаких мужчин даже в зале! Разве что Дмитрий Хрусталев останется и парочка очень важных персон заглянет...

Участники:
Дмитрий Хрусталев, Наталья Еприкян, Екатерина Скулкина, Екатерина Варнава, Мария Кравченко, Полина Сибагатуллина, Екатерина Баранова, Татьяна Морозова, Елена Борщёва, Наталия Медведева, Надежда Сысоева, Надежда Ангарская, Марина Федункив

Продолжительность: ~ 00:43:44

Ведущий: Дмитрий Хрусталёв

Видеокодек: XviD
Битрейт видео: ~1650 kb/s
Размер кадра: 720 x 400
Качество видео: WEB-DLRip
Аудиокодек: MP3, 2ch.
Битрейт аудио: 128 kb/s
Формат : AVI
Формат/Информация : Audio Video Interleave
Размер файла : 559 Мбайт
Продолжительность : 43 м.
Общий поток : 1786 Кбит/сек
Программа кодирования : VirtualDubMod 1.5.10.3 | www.virtualdub-fr.org || (build 2550/release)
Библиотека кодирования : VirtualDubMod build 2550/release

Видео
Идентификатор : 0
Формат : MPEG-4 Visual
Профиль формата : Advanced Simple@L5
Параметр BVOP формата : 2
Параметр QPel формата : Нет
Параметр GMC формата : Без точки перехода
Параметр матрицы формата : Default (MPEG)
Идентификатор кодека : XVID
Идентификатор кодека/Подсказка : XviD
Продолжительность : 43 м.
Битрейт : 1648 Кбит/сек
Ширина : 720 пикселей
Высота : 400 пикселей
Соотношение сторон : 16:9
Частота кадров : 25,000 кадров/сек
Цветовое пространство : YUV
Субдискретизация насыщенности : 4:2:0
Битовая глубина : 8 бит
Тип развёртки : Прогрессивная
Метод сжатия : С потерями
Бит/(Пиксели*Кадры) : 0.229
Размер потока : 516 Мбайт (92%)
Библиотека кодирования : XviD 1.2.1 (UTC 2008-12-04)

Аудио
Идентификатор : 1
Формат : MPEG Audio
Версия формата : Version 1
Профиль формата : Layer 3
Идентификатор кодека : 55
Идентификатор кодека/Подсказка : MP3
Продолжительность : 43 м.
Вид битрейта : Постоянный
Битрейт : 128 Кбит/сек
Каналы : 2 канала
Частота : 44,1 КГц
Метод сжатия : С потерями
Размер потока : 40,0 Мбайт (7%)
Выравнивание : Разделение по промежуткам
Продолжительность промежутка : 40 мс. (1,00 видеокадр)
Время предзагрузки промежутка : 500 мс.
Библиотека кодирования : LAME3.99r
Настройки программы : -m s -V 4 -q 2 -lowpass 17 -b 128
Скриншоты:


ВНИМАНИЕ!!! Имеется незначительный рассинхрон звука.




реклама партнёра


Вернуться к началу
 Профиль  
 
   Похожие торренты   Автор   Торрент   Размер 
В этой теме нет новых непрочитанных сообщений. Comedy Woman. Новый формат [Эфир 05.23] [Комедийное шоу, 2014] WEB-DL 720p

Dracon

31 | 5

1.21 ГБ

В этой теме нет новых непрочитанных сообщений. Comedy Woman. Новый формат [Эфир 24.10] [Комедийное шоу, 2014] WEB-DL 720p

Dracon

201 | 12

1.39 ГБ

В этой теме нет новых непрочитанных сообщений. Comedy Woman. Новый формат [Эфир 10.10] [Комедийное шоу, 2014] WEB-DL 720p

Dracon

65 | 4

1.17 ГБ

В этой теме нет новых непрочитанных сообщений. Comedy Woman [Юмор, 27.12.2013] WEB-DLRip

Ανδρέας

319 | 9

575.92 МБ

В этой теме нет новых непрочитанных сообщений. Comedy Woman [Сезон 6, выпуск 2] [ТВ-Шоу, Юмор, 2014] WEBRip

Dracon

1 | 3

543.49 МБ

В этой теме нет новых непрочитанных сообщений. Comedy Woman [Новогодний выпуск] [ТВ-Шоу, Юмор, 2014] SatRip

Dracon

80 | 7

660.61 МБ

В этой теме нет новых непрочитанных сообщений. Comedy Woman [Сезон 6, выпуск 1] [ТВ-Шоу, Юмор, 07.03.2014] WEBRip

Dracon

5 | 3

635.7 МБ


Начать новую тему Ответить на тему  [ 1 сообщение ] 




Для Мосгорсуда, Роскомнадзора и рекламодателей:: mosgorsud-torrent[собачка]yandex.ru