Торрент файл
скачать торрент магнет ссылка Добавлен: 06 сен 2013, 16:29
Размер: 498.84 МБ
Сидеров: 7
Личеров: 2
Автор

СообщениеДобавлено: 06 сен 2013, 16:29 

Не в сети
Зам. Админа
Аватара пользователя
Дата регистрации:
02 дек 2010, 12:39
Спасибо: 12461 / 214
Сообщения: 27968
Режиссер / Телекомпания: ТНТ
Русское название: Comedy Woman
Год выпуска: 2013
Жанр: ТВ-Шоу

Описание:
Пока мужчины меняют зимнюю резину в автосервисах, девушки из ComedyWoman меняют формат шоу. В новом сезоне комеди-дамы покажут все, на что они способны и остановить их не сможет никто... Даже ОН! Ведь в рамках предвыборной кампании хорошего жениха в гости ComedyWoman заглянет Второй Человек в нашей стране! Теперь в Comedy Woman всех ожидает все на 100% женское, ведь не считая Дмитрия Хрусталева на сцене и в зале будут только дамы. Впрочем, будут и исключения. Фишкой нового сезона станут новые костюмы, специально разработанные для девчонок одним модным дизайнером. Теперь в нарядах будет больше секса, а на сцене больше женских ног, которые ранее тщательно скрывались за длинными юбками. Кроме этого зрители увидят и новые декорации в стиле «Алиса в стране чудес»
Популярное шоу Сomedy Woman теперь становится на 100% женским! Здесь все по-новому: еще больше секса, голых ног, эротичных костюмов, жарких шуток, веселых закулисных перебранок и никаких мужчин даже в зале! Разве что Дмитрий Хрусталев останется и парочка очень важных персон заглянет...

Участники:
Дмитрий Хрусталев, Наталья Еприкян, Екатерина Скулкина, Екатерина Варнава, Мария Кравченко, Полина Сибагатуллина, Екатерина Баранова, Татьяна Морозова, Елена Борщёва, Наталия Медведева, Надежда Сысоева, Надежда Ангарская, Марина Федункив

Продолжительность: ~ 00:46:56

Ведущий: Дмитрий Хрусталёв

Видеокодек: AVC
Битрейт видео: ~1246 kb/s
Размер кадра: 640 x 368
Качество видео: WEB-DLRip
Аудиокодек: AC-3, 2ch.
Битрейт аудио: 192 kb/s
Формат : Matroska
Версия формата : Version 4 / Version 2
Размер файла : 499 Мбайт
Продолжительность : 46 м.
Общий поток : 1486 Кбит/сек
Дата кодирования : UTC 2013-09-06 10:49:23
Программа кодирования : mkvmerge v6.1.0 ('Old Devil') built on Apr 20 2013 10:07:04
Библиотека кодирования : libebml v1.3.0 + libmatroska v1.4.0

Видео
Идентификатор : 1
Формат : AVC
Формат/Информация : Advanced Video Codec
Профиль формата :
Параметр CABAC формата : Нет
Параметр ReFrames формата : 5 кадров
Идентификатор кодека : V_MPEG4/ISO/AVC
Продолжительность : 46 м.
Битрейт : 1264 Кбит/сек
Ширина : 640 пикселей
Высота : 368 пикселей
Соотношение сторон : 16:9
Соотношение сторон в оригинале : 16:9
Режим частоты кадров : Переменный
Частота кадров : 50,000 кадров/сек
Цветовое пространство : YUV
Субдискретизация насыщенности : 4:2:0
Битовая глубина : 8 бит
Тип развёртки : Прогрессивная
Бит/(Пиксели*Кадры) : 0.107
Размер потока : 424 Мбайт (85%)
Библиотека кодирования : x264 core 125
Настройки программы : cabac=0 / ref=5 / deblock=1:-1:-1 / analyse=0x1:0x111 / me=umh / subme=8 / psy=1 / psy_rd=1.00:0.15 / mixed_ref=1 / me_range=16 / chroma_me=1 / trellis=1 / 8x8dct=0 / cqm=0 / deadzone=21,11 / fast_pskip=1 / chroma_qp_offset=-3 / threads=24 / lookahead_threads=4 / sliced_threads=0 / nr=0 / decimate=1 / interlaced=0 / bluray_compat=0 / constrained_intra=0 / bframes=0 / weightp=0 / keyint=100 / keyint_min=10 / scenecut=40 / intra_refresh=0 / rc_lookahead=50 / rc=crf / mbtree=1 / crf=17.0 / qcomp=0.60 / qpmin=0 / qpmax=69 / qpstep=4 / vbv_maxrate=1300 / vbv_bufsize=1300 / crf_max=0.0 / nal_hrd=none / ip_ratio=1.40 / aq=1:1.00
Default : Да
Forced : Нет

Аудио
Идентификатор : 2
Формат : AC-3
Формат/Информация : Audio Coding 3
Расширение режима : CM (complete main)
Идентификатор кодека : A_AC3
Продолжительность : 46 м.
Вид битрейта : Постоянный
Битрейт : 192 Кбит/сек
Каналы : 2 канала
Расположение каналов : Front: L R
Частота : 44,1 КГц
Битовая глубина : 16 бит
Метод сжатия : С потерями
Размер потока : 64,5 Мбайт (13%)
Default : Да
Forced : Нет
Скриншоты:




реклама партнёра


Вернуться к началу
 Профиль  
 
   Похожие торренты   Автор   Торрент   Размер 
В этой теме нет новых непрочитанных сообщений. Comedy Woman. Новый формат [Эфир 05.23] [Комедийное шоу, 2014] WEB-DL 720p

Dracon

31 | 5

1.21 ГБ

В этой теме нет новых непрочитанных сообщений. Comedy Woman. Новый формат [Эфир 10.10] [Комедийное шоу, 2014] WEB-DL 720p

Dracon

65 | 4

1.17 ГБ

В этой теме нет новых непрочитанных сообщений. Comedy Woman. Новый формат [Эфир 24.10] [Комедийное шоу, 2014] WEB-DL 720p

Dracon

201 | 12

1.39 ГБ

В этой теме нет новых непрочитанных сообщений. Comedy Woman [Юмор, 27.12.2013] WEB-DLRip

Ανδρέας

319 | 9

575.92 МБ

В этой теме нет новых непрочитанных сообщений. Comedy Woman [Сезон 6, выпуск 1] [ТВ-Шоу, Юмор, 07.03.2014] WEBRip

Dracon

5 | 3

635.7 МБ

В этой теме нет новых непрочитанных сообщений. Comedy Woman [Новогодний выпуск] [ТВ-Шоу, Юмор, 2014] SatRip

Dracon

80 | 7

660.61 МБ

В этой теме нет новых непрочитанных сообщений. Comedy Woman [Сезон 6, выпуск 2] [ТВ-Шоу, Юмор, 2014] WEBRip

Dracon

1 | 3

543.49 МБ


Начать новую тему Ответить на тему  [ 1 сообщение ] 




Для Мосгорсуда, Роскомнадзора и рекламодателей:: mosgorsud-torrent[собачка]yandex.ru