Торрент файл
скачать торрент магнет ссылка Добавлен: 11 фев 2012, 20:18
Размер: 989.71 МБ
Сидеров: 39
Личеров: 7
Автор

СообщениеДобавлено: 11 фев 2012, 20:18 

Не в сети
Супермодератор
Аватара пользователя
Дата регистрации:
14 июн 2010, 21:00
Возраст: 28
Спасибо: 1325 / 1
Сообщения: 5644
Откуда: НиНО
Михаил Задорнов - Нас не оцифруешь!


Перевод: Не требуется, cубтитры: отсутствуют

Формат: SATRip, AVI, DivX, MP3

Страна: Россия

Режиссер: REN TV

Жанр: Сатира

Продолжительность: 01:27:02

Год выпуска: 2011

В ролях: Михаил Задорнов

Описание: Новый концерт Михаила Задорнова - специально к майским праздникам. Сатрик, как всегда, восхищается "неформатностью" мышления русских людей - он продолжит серию "Только у нас..." и "Только наш человек...", расскажет о тайнах русской души и языка. И не сможет пройти мимо реалий сорвременной жизни - повсеместной модернизации и реформы образования.- "Мне присылают такие вопиющие примеры безграмотности молодежи, что я обязан ими поделиться. Может это заставит что-то делать, чтобы не позволить превратить наших детей в покемонов."

Видео: 640x480 (1.33:1), 25 fps, DivX Codec 6.8.5/6.9.1 ~1451 kbps avg, 0.19 bit/pixel
Аудио: 48 kHz, AC3 Dolby Digital, 2/0 (L,R) ch, ~128 kbps
General
Complete name: mihail_zadornov_[tfile.ru].avi
Format: AVI
Format/Info: Audio Video Interleave
File size: 990 MiB
Duration: 1h 27mn
Overall bit rate: 1 590 Kbps
Writing application: VirtualDubModRus 1.5.10.1 (build 2439/release)
Writing library: VirtualDubMod build 2439/release

Video
ID: 0
Format: MPEG-4 Visual
Format settings, BVOP: 2
Format settings, QPel: No
Format settings, GMC: No warppoints
Format settings, Matrix: Default (H.263)
Muxing mode: Packed bitstream
Codec ID: DX50
Codec ID/Hint: DivX 5
Duration: 1h 27mn
Bit rate: 1 452 Kbps
Width: 640 pixels
Height: 480 pixels
Display aspect ratio: 4:3
Frame rate: 25.000 fps
Color space: YUV
Chroma subsampling: 4:2:0
Bit depth: 8 bits
Scan type: Progressive
Compression mode: Lossy
Bits/(Pixel*Frame): 0.189
Stream size: 904 MiB (91%)
Writing library: DivX 6.8.5 (UTC 2009-08-20)

Audio
ID: 1
Format: AC-3
Format/Info: Audio Coding 3
Mode extension: CM (complete main)
Codec ID: 2000
Duration: 1h 27mn
Bit rate mode: Constant
Bit rate: 128 Kbps
Channel(s): 2 channels
Channel positions: Front: L R
Sampling rate: 48.0 KHz
Bit depth: 16 bits
Compression mode: Lossy
Stream size: 79.7 MiB (8%)
Alignment: Split accross interleaves
Interleave, duration: 40 ms (1.00 video frame)
Interleave, preload duration: 500 ms






Поделиться:




реклама партнёра


Вернуться к началу
 Профиль Отправить личное сообщение  
 
   Похожие торренты   Автор   Торрент   Размер 
В этой теме нет новых непрочитанных сообщений. Михаил Задорнов. Наблюдашки и размышлизмы (Россия) [Юмор, 01.05.2015] SATRip

Dracon

11 | 3

1000.73 МБ

В этой теме нет новых непрочитанных сообщений. Михаил Задорнов - Слава Роду (Россия) [Юмор, 04.11.2015] SATRip

Dracon

58 | 2

1.23 ГБ

В этой теме нет новых непрочитанных сообщений. Уральские пельмени. Елочка Беги! [01-02] [ТВ-шоу, юмор, сатира, развлекательный, 2013] SATRip

Ανδρέας

В этой теме нет новых непрочитанных сообщений. Уральские пельмени. Все лето в шляпе (Анастастия Ширина, Леонид Коновалов) [ТВ-шоу, юмор, сатира, развлекательный, 2015] SATRip

Dracon

65 | 3

950.77 МБ

В этой теме нет новых непрочитанных сообщений. Братья Ч (Михаил Угаров) [Драма, 2014] SATRip

Dracon

2 | 0

1.37 ГБ

В этой теме нет новых непрочитанных сообщений. ЧОП [01x01-16 из 16] (Михаил Соловьев) [комедия, 2015] SATRip

Dracon

646 | 305

4.82 ГБ

В этой теме нет новых непрочитанных сообщений. Михаил Галустян. Понять и простить (Россия) [Документальный, 11.07.2015] SatRip

Dracon

1 | 1

715.52 МБ


Начать новую тему Ответить на тему  [ 1 сообщение ] 




Для Мосгорсуда, Роскомнадзора и рекламодателей:: mosgorsud-torrent[собачка]yandex.ru