Торрент файл
скачать торрент магнет ссылка Добавлен: 11 фев 2012, 19:10
Размер: 2.02 ГБ
Сидеров: 8
Личеров: 9
Автор

СообщениеДобавлено: 11 фев 2012, 19:10 

Не в сети
Супермодератор
Аватара пользователя
Дата регистрации:
14 июн 2010, 21:00
Возраст: 28
Спасибо: 1324 / 1
Сообщения: 5644
Откуда: НиНО
Фестиваль Кивин в Сочи-2011. 2 тур.




Формат: Web-DL, FLV, H.26x, AAC
Страна: Россия
Жанр: КВН
Продолжительность: 08:19:46
Год выпуска: 2011
Описание: Тур: Второй
Название игры: Фестиваль в Сочи
Даты игр: 20 и 21 января 2011



Доп. информация: Чем будет отличаться этот фестиваль от предыдущего?
Андрей Чивурин: Главное отличие - не будет телеверсии фестиваля. Поначалу нас эта новость, как и многих, шокировала, но потом, проанализировав причины, мы поняли, что это, в принципе более-менее безболезненная потеря. В любом случае фестиваль свою функцию (распределения команд по лигам) выполнит. На первом-втором туре и гала-концерте мы увидим материал команд, который пойдёт на первые игры всех телевизионных лиг. Такой задел, во всяком случае, для Высшей лиги очень важен, поскольку паузы между фестивалем и началом 1/8 в грядущем сезоне почти нет. То есть, играть будем с места в карьер!

Видео: H.26x, 400x304, 400 кб/с, 25.000 fps
Аудио: AAC, 44100Hz mono, 93 кб/сек


День - 1
01 Москва «Сборная РУДН» 4:02
02 Волгоград «Копейка» 3:48
03 Краснодар «Калинина-13» 3:55
04 Екатеринбург «По фэн-шую» 5:11
05 Бишкек «Азия Микс» 5:12
06 Нижний Новгород «КИСА» 3:35
07 Стерлитамак «Сборная Стерлитамакского института физической культуры» 3:42
08 Одесса «Сантех» 3:57
09 Луганск «Другой мир» 3:59
10 Сборная Ставрополя 3:39
11 Минск-Гродно «Белые Росы» 4:59
12 Гомель «Машина» 5:17
13 Московская область «Пропан» 5:22
14 Минск «Сборная БГПУ» 6:11
15 Таганрог «Родина Чехова» 4:03
16 Сборная Ижевска 3:47
17 Петрозаводск «13-й факультет» 5:29
18 Волгоград «Безлимит» 4:12
19 Долгопрудный «Сборная Физтеха» 5:51
20 Альметьевск Сборная ТАТнефти «Добрый вечер» 3:03
21 Екатеринбург «УРАЛ» 4:52
22 Благовещенск «Азбука» 3:01
24 Литва «Для тебя» 2:35
23 Подольск «9 минут 11-го» !!! 6:25
25 Воскресенское «Шизгара» 4:00
26 Волгоград «Сборная СГА» 3:17
27 Таганрог «ЖЕСТ» 5:38
28 Сборная Костанайской области 3:08
29 Красноярск «Молодость» 4:39
30 Кемерово «Кембридж» 4:33
31 Вязьма «Ананас» 6:04
32 Москва «Общее дело» 5:30
33 Ростов-на-Дону «Сборная Евразийского института» ! 7:10
34 Рига «Рижские, готы» 5:41
35 Екатеринбург «Голоса» !! 5:29
36 Барнаул «Бумеранг» 3:47
37 Хабаровск «Сделано в Хабаровске» ! 4:27
38 Пенза «Мисс Мира» 5:48
39 Астрахань «Сборная Камызякского края»!! 7:30
40 Харьков «R2D2» 5:36
41 Ростов-на-Дону «Разборная Ростова» 4:40
42 Солнечногорск «Борщев А.Н.» 5:50
43 Краснодар «Самая культурная сборная» 4:11
44 Красноярск «Красноярск» 5:08
45 Москва «МАМА» 5:21
46 Иркутск «РАИСЫ» 6:18
47 Анапа «Курортный тариф» 3:14
48 Архангельск «Сборная САФУ» 2:29
49 Москва «Роза ветров» 4:59
50 Астана «Спарта-Астана» 5:02
51 Чебоксары-Москва «Общага» ЧГПУ, ЧКИ РУК 4:24
52 Пятигорск «Город ПятигорскЪ» 8:43
53 Уфа «Сергеечи» 10:19
54 Москва «ФАС» 6:08
55 Санкт-Петербург «Факультет журналистики» 6:30

День - 2
56 Екатеринбург «Ирина Михайловна» 5:20
57 «Сборная Владикавказа» 6:02
58 Новосибирск «Серьёзные люди» 6:02
59 Москва «Техника молодежи» 6:26
60 Кострома Сборная КГСХА «Самоцветы» 3:39
61 Сухум «Маленькая страна» 4:52
62 Баку «Черное золото» 3:52
63 Иркутск-Улан-Удэ «350» 6:15
64 Минск «ГААГА» 2:53
65 Ереван «Сборная Армении» 5:11
66 Млынев «Бомба» 6:18
67 Иркутск «ИГУ» 6:59
68 Казань «Четыре татарина» 5:12
69 Орёл «Просто сказал» 4:54
70 Санкт-Петербург «ИНЖЭКОН» 6:11
71 Челябинск «Бомонд» 6:15
72 Чита «Гураны» 5:25
73 Краснодар «Мужская сборная» 4:27
74 Харьков «Сборная блондинок Украины» 5:53
75 Тюменская область «Союз» 4:54
76 Томск «ТПУ» 3:35
77 Москва «ВиZит» 7:25
78 Ульяновск «Миллениум» 4:48
79 Москва «Сега Мега Драйв 16 бит» 5:25
80 Киров Сборная Кировской области «Вятка» 5:54
81 Батайск «Сборная Батайска» 8:23
82 Минск «Минское Море» 5:30
83 «Сборная Чеченской республики» 7:51
84 Москва МГИМО «Парапапарам» 10:05
85 Симферополь «Остров Крым» 6:54
86 Астана «Астана KZ» 8:21
87 Хабаровск «Ботанический сад» 9:11
88 Якутия «Дежа Вю» 8:57
89 Омск «Полиграф Полиграфыч» 8:57
90 Самара «Сок» 10:19
91 Нягань «Кефир» 7:29
92 Днепропетровск Сборная Днепропетровска «Днепр» 7:37
93 Воронеж «25-я» 11:04
94 Смоленск «Триод и Диод» 12:27
95 Астана «Казахи» 11:45
96 Сборная Краснодарского края «БАК-Соучастники» 12:19





General
Format: Flash Video
File size: 14.9 MiB
Duration: 4mn 2s
Overall bit rate: 518 Kbps
Tagged date: UTC 2011-01-21 01:19:55
Writing application: Lavf52.80.0 / Lavf52.80.0
Tagging application: flvtool++ (Facebook, Motion project, dweatherford)
totalframes: 6053.000

Video
Format: AVC
Format/Info: Advanced Video Codec
Format profile: High@L2.1
Format settings, CABAC: Yes
Format settings, ReFrames: 5 frames
Codec ID: 7
Duration: 4mn 2s
Bit rate: 433 Kbps / 391 Kbps
Nominal bit rate: 400 Kbps
Width: 400 pixels / 400 pixels
Original width: 400 pixels
Height: 304 pixels / 304 pixels
Original height: 304 pixels
Display aspect ratio: 4:3
Frame rate mode: Constant / CFR
Frame rate: 25.000 fps / 25.000 fps
Color space: YUV
Chroma subsampling: 4:2:0
Bit depth: 8 bits
Scan type: Progressive
Bits/(Pixel*Frame): 0.142
Stream size: 12.5 MiB (84%)
Writing library: x264 core 104
Encoding settings: cabac=1 / ref=5 / deblock=1:0:0 / analyse=0x3:0x133 / me=dia / subme=7 / psy=1 / psy_rd=1.00:0.00 / mixed_ref=1 / me_range=4 / chroma_me=1 / trellis=1 / 8x8dct=1 / cqm=0 / deadzone=21,11 / fast_pskip=1 / chroma_qp_offset=-2 / threads=7 / sliced_threads=0 / nr=0 / decimate=1 / interlaced=0 / constrained_intra=0 / bframes=0 / weightp=0 / keyint=25 / keyint_min=13 / scenecut=40 / intra_refresh=0 / rc_lookahead=40 / rc=abr / mbtree=1 / bitrate=400 / ratetol=10.0 / qcomp=0.50 / qpmin=10 / qpmax=40 / qpstep=4 / vbv_maxrate=480 / vbv_bufsize=800 / ip_ratio=1.41 / aq=1:1.00 / nal_hrd=none

Audio
Format: AAC
Format/Info: Advanced Audio Codec
Format profile: LC
Codec ID: 10
Duration: 4mn 2s
Bit rate: 76.7 Kbps / 93.8 Kbps
Channel(s): 1 channel
Channel positions: Front: C
Sampling rate: 44.1 KHz
Compression mode: Lossy
Stream size: 2.21 MiB (15%)

General
Format: Flash Video
File size: 14.2 MiB
Duration: 3mn 48s
Overall bit rate: 523 Kbps
Tagged date: UTC 2011-01-21 01:24:17
Writing application: Lavf52.80.0 / Lavf52.80.0
Tagging application: flvtool++ (Facebook, Motion project, dweatherford)
totalframes: 5710.000

Video
Format: AVC
Format/Info: Advanced Video Codec
Format profile: High@L2.1
Format settings, CABAC: Yes
Format settings, ReFrames: 5 frames
Codec ID: 7
Duration: 3mn 48s
Bit rate: 438 Kbps / 391 Kbps
Nominal bit rate: 400 Kbps
Width: 400 pixels / 400 pixels
Original width: 400 pixels
Height: 304 pixels / 304 pixels
Original height: 304 pixels
Display aspect ratio: 4:3
Frame rate mode: Constant / CFR
Frame rate: 25.013 fps / 25.000 fps
Color space: YUV
Chroma subsampling: 4:2:0
Bit depth: 8 bits
Scan type: Progressive
Bits/(Pixel*Frame): 0.144
Stream size: 11.9 MiB (84%)
Writing library: x264 core 104
Encoding settings: cabac=1 / ref=5 / deblock=1:0:0 / analyse=0x3:0x133 / me=dia / subme=7 / psy=1 / psy_rd=1.00:0.00 / mixed_ref=1 / me_range=4 / chroma_me=1 / trellis=1 / 8x8dct=1 / cqm=0 / deadzone=21,11 / fast_pskip=1 / chroma_qp_offset=-2 / threads=5 / sliced_threads=0 / nr=0 / decimate=1 / interlaced=0 / constrained_intra=0 / bframes=0 / weightp=0 / keyint=25 / keyint_min=13 / scenecut=40 / intra_refresh=0 / rc_lookahead=40 / rc=abr / mbtree=1 / bitrate=400 / ratetol=10.0 / qcomp=0.50 / qpmin=10 / qpmax=40 / qpstep=4 / vbv_maxrate=480 / vbv_bufsize=800 / ip_ratio=1.41 / aq=1:1.00 / nal_hrd=none

Audio
Format: AAC
Format/Info: Advanced Audio Codec
Format profile: LC
Codec ID: 10
Duration: 3mn 48s
Bit rate: 76.7 Kbps / 93.8 Kbps
Channel(s): 1 channel
Channel positions: Front: C
Sampling rate: 44.1 KHz
Compression mode: Lossy
Stream size: 2.09 MiB (15%)

General
Format: Flash Video
File size: 14.5 MiB
Duration: 3mn 55s
Overall bit rate: 519 Kbps
Tagged date: UTC 2011-01-21 01:37:23
Writing application: Lavf52.80.0 / Lavf52.80.0
Tagging application: flvtool++ (Facebook, Motion project, dweatherford)
totalframes: 5883.000

Video
Format: AVC
Format/Info: Advanced Video Codec
Format profile: High@L2.1
Format settings, CABAC: Yes
Format settings, ReFrames: 5 frames
Codec ID: 7
Duration: 3mn 55s
Bit rate: 434 Kbps / 391 Kbps
Nominal bit rate: 400 Kbps
Width: 400 pixels / 400 pixels
Original width: 400 pixels
Height: 304 pixels / 304 pixels
Original height: 304 pixels
Display aspect ratio: 4:3
Frame rate mode: Constant / CFR
Frame rate: 25.013 fps / 25.000 fps
Color space: YUV
Chroma subsampling: 4:2:0
Bit depth: 8 bits
Scan type: Progressive
Bits/(Pixel*Frame): 0.143
Stream size: 12.2 MiB (84%)
Writing library: x264 core 104
Encoding settings: cabac=1 / ref=5 / deblock=1:0:0 / analyse=0x3:0x133 / me=dia / subme=7 / psy=1 / psy_rd=1.00:0.00 / mixed_ref=1 / me_range=4 / chroma_me=1 / trellis=1 / 8x8dct=1 / cqm=0 / deadzone=21,11 / fast_pskip=1 / chroma_qp_offset=-2 / threads=6 / sliced_threads=0 / nr=0 / decimate=1 / interlaced=0 / constrained_intra=0 / bframes=0 / weightp=0 / keyint=25 / keyint_min=13 / scenecut=40 / intra_refresh=0 / rc_lookahead=40 / rc=abr / mbtree=1 / bitrate=400 / ratetol=10.0 / qcomp=0.50 / qpmin=10 / qpmax=40 / qpstep=4 / vbv_maxrate=480 / vbv_bufsize=800 / ip_ratio=1.41 / aq=1:1.00 / nal_hrd=none

Audio
Format: AAC
Format/Info: Advanced Audio Codec
Format profile: LC
Codec ID: 10
Duration: 3mn 55s
Bit rate: 76.7 Kbps / 93.8 Kbps
Channel(s): 1 channel
Channel positions: Front: C
Sampling rate: 44.1 KHz
Compression mode: Lossy
Stream size: 2.15 MiB (15%)


Поделиться:




реклама партнёра


Вернуться к началу
 Профиль Отправить личное сообщение  
 
   Похожие торренты   Автор   Торрент   Размер 
В этой теме нет новых непрочитанных сообщений. КВН. Летний кубок в Сочи [Юмор, 14.09.2014] SatRip

Dracon

4 | 3

1.55 ГБ

В этой теме нет новых непрочитанных сообщений. Голос в Сочи [28.02] (Россия) [Музыка, концерт, 2015] HDTVRip

Dracon

26 | 6

1.04 ГБ

В этой теме нет новых непрочитанных сообщений. КВН-2015. Голосящий КиВиН [06.09] (Первый канал) [Юмор, 2015] HDTV 1080i

Dracon

2568 | 1314

10.59 ГБ

В этой теме нет новых непрочитанных сообщений. КВН 2014. Голосящий КиВиН [04.11] [2014, Юмор, HDTV 1080i]

Nickolas3435

36 | 4

18.22 ГБ

В этой теме нет новых непрочитанных сообщений. КВН 2015. Голосящий КиВиН [02 из 02] [Юмористическое шоу, 2015] SATRip

Ανδρέας

34 | 8

2.39 ГБ

В этой теме нет новых непрочитанных сообщений. КВН 2014. Голосящий КиВиН [04.11] [Юмор, 2014] HDTVRip

Dracon

2604 | 347

2.66 ГБ

В этой теме нет новых непрочитанных сообщений. Сочи. Курорт с олимпийским размахом (Элла Тухарели) [Документальный, познавательный, 2015] HDTVRip

Dracon

133 | 12

543.9 МБ


Начать новую тему Ответить на тему  [ 1 сообщение ] 




Для Мосгорсуда, Роскомнадзора и рекламодателей:: mosgorsud-torrent[собачка]yandex.ru