Торрент файл
скачать торрент магнет ссылка Добавлен: 15 дек 2011, 17:58
Размер: 8.74 ГБ
Сидеров: 105
Личеров: 17
Статус: (Aleksandr.ru)
Автор

СообщениеДобавлено: 15 дек 2011, 17:58 

Не в сети
Супермодератор
Аватара пользователя
Дата регистрации:
22 май 2010, 12:40
Спасибо: 2027 / 98
Сообщения: 2963
Откуда: Н.Новгород
Алеша Попович и Тугарин Змей



Информация о фильме
Оригинальное название: Алеша Попович и Тугарин Змей
Год выхода: 2004
Жанр: мультфильм, мюзикл, мелодрама, комедия
Режиссер: Константин Бронзит
В ролях: Олег Куликович, Лия Медведева, Дмитрий Высоцкий, Анатолий Петров, Наталья Данилова, Сергей Маковецкий, Иван Краско, Татьяна Иванова, Михаил Черняк, Константин Бронзит

О фильме: В древнем русском городе Ростове родился в поповской семье сын. Назвали его родители Алешей. А когда он вырос и стал богатырем, то совершил такие подвиги, что стал героем русских былин Алешей Поповичем. Только подвиги его начались с конфуза…

Подступила к Ростову тугарская вражеская орда во главе с Тугарином Змеем и потребовала, чтобы жители города выплатили дань. Поповский сын предложил план действий. Народ этот план одобрил и собрал гору золота. Алеша же умудрился собственный план «благополучно» провалить, да с каким треском!

И золото упустил, и полгорода разрушил. После чего поклялся — Тугарина Змея изловить и золото вернуть. Отправился Алеша Попович в путь вместе с дедом Тихоном, который мальчика вырастил и воспитал, а чуть позже компанию им составили говорящий конь Юлий, купленный у цыган, почти 16-летняя красавица Любава, ее бабка и их ослик Моисей…




Выпущено: Анимационная студия "Мельница"
Продолжительность: 01:18:46
Перевод: Оригинал

Файл
Кодек: x264
Качество: BDRip (источник: Blu-ray Disc)
Видео: 1920x1032 (1,860), 23.976 fps, 3523 kbps
Звук: 48 kHz, AC-3, 6 ch, 448 kbps

Скриншоты

Общее
Уникальный идентификатор: 203784553906545231479555651098392429687 (0x994F7A3AA2ED92CA8303B6320A388477)
Полное имя: Alyosha.Popovich.i.Tugarin.Zmey.2004.BDRip.1080p.Rus.mkv
Формат: Matroska
Версия формата: Version 2
Размер файла: 2,19 Гбайт
Продолжительность: 1 ч. 18 м.
Общий поток: 3969 Кбит/сек
Название фильма: Алеша Попович и Тугарин Змей (2004)
Дата кодирования: UTC 2011-12-12 09:01:27
Программа кодирования: mkvmerge v4.0.0 ('The Stars were mine') сборка от Jun6 2010 16:18:42
Библиотека кодирования: libebml v1.0.0 + libmatroska v1.0.0

Видео
Идентификатор: 1
Формат: AVC
Формат/Информация: Advanced Video Codec
Профиль формата: High@L4.1
Параметр CABAC формата: Да
Параметр ReFrames формата: 4 кадра
Идентификатор кодека: V_MPEG4/ISO/AVC
Продолжительность: 1 ч. 18 м.
Битрейт: 3523 Кбит/сек
Ширина: 1920 пикселей
Высота: 1032 пикселя
Соотношение сторон: 1,860
Частота кадров: 23,976 кадра/сек
Цветовое пространство: YUV
Субдискретизация насыщенности: 4:2:0
Битовая глубина: 8 бит
Тип развёртки: Прогрессивная
Бит/(Пиксели*Кадры): 0.074
Размер потока: 1,90 Гбайт (87%)
Заголовок: Release by AlexKa
Библиотека кодирования: x264 core 120 r2120 0c7dab9
Настройки программы: cabac=1 / ref=4 / deblock=1:0:0 / analyse=0x3:0x133 / me=umh / subme=10 / psy=1 / psy_rd=1.00:0.00 / mixed_ref=1 / me_range=32 / chroma_me=1 / trellis=2 / 8x8dct=1 / cqm=0 / deadzone=21,11 / fast_pskip=0 / chroma_qp_offset=-2 / threads=12 / sliced_threads=0 / nr=0 / decimate=0 / interlaced=0 / bluray_compat=0 / constrained_intra=0 / bframes=3 / b_pyramid=2 / b_adapt=2 / b_bias=0 / direct=3 / weightb=1 / open_gop=0 / weightp=2 / keyint=240 / keyint_min=24 / scenecut=40 / intra_refresh=0 / rc_lookahead=60 / rc=2pass / mbtree=1 / bitrate=3523 / ratetol=1.0 / qcomp=0.60 / qpmin=0 / qpmax=69 / qpstep=4 / cplxblur=20.0 / qblur=0.5 / ip_ratio=1.40 / aq=1:1.00
Язык: Russian

Аудио
Идентификатор: 2
Формат: AC-3
Формат/Информация: Audio Coding 3
Расширение режима: CM (complete main)
Идентификатор кодека: A_AC3
Продолжительность: 1 ч. 18 м.
Вид битрейта: Постоянный
Битрейт: 448 Кбит/сек
Каналы: 6 каналов
Расположение каналов: Front: L C R, Side: L R, LFE
Частота: 48,0 КГц
Битовая глубина: 16 бит
Метод сжатия: С потерями
Размер потока: 253 Мбайт (11%)
Язык: Russian




Добрыня Никитич и Змей Горыныч



Информация о фильме
Оригинальное название: Добрыня Никитич и Змей Горыныч
Год выхода: 2006
Жанр: мультфильм, комедия, приключения
Режиссер: Илья Максимов
В ролях: Валерий Соловьев, Юрий Тарасов, Сергей Маковецкий, Андрей Толубеев, Екатерина Гороховская, Олег Куликович, Анатолий Петров, Наталья Данилова

О фильме: Пока храбрый воин Добрыня Никитич собирал с тугар дань, в Киеве похитили любимую племянницу князя — Забаву Путятичну. Вопреки воле князя, Добрыня с женихом Забавы Елисеем отправляется на ее поиски. В пути их ждет много приключений…




Выпущено: Анимационная студия "Мельница"
Продолжительность: 01:08:08
Перевод: Оригинал

Файл
Кодек: x264
Качество: BDRip (источник: Blu-ray Disc)
Видео: 1920x1032 (1,860), 23.976 fps, 4143 kbps
Звук: 48 kHz, AC-3, 6 ch, 448 kbps

Скриншоты

Общее
Уникальный идентификатор: 174354189537932430175392496566245312299 (0x832B653C9B85A308B129EC3D90B8C72B)
Полное имя: Dobrynya.Nikitich.i.Zmey.Gorynych.2006.BDRip.1080p.Rus.mkv
Формат: Matroska
Версия формата: Version 2
Размер файла: 2,19 Гбайт
Продолжительность: 1 ч. 8 м.
Общий поток: 4592 Кбит/сек
Название фильма: Добрыня Никитич и Змей Горыныч (2006)
Дата кодирования: UTC 2011-12-12 10:50:03
Программа кодирования: mkvmerge v4.0.0 ('The Stars were mine') сборка от Jun6 2010 16:18:42
Библиотека кодирования: libebml v1.0.0 + libmatroska v1.0.0

Видео
Идентификатор: 1
Формат: AVC
Формат/Информация: Advanced Video Codec
Профиль формата: High@L4.1
Параметр CABAC формата: Да
Параметр ReFrames формата: 4 кадра
Идентификатор кодека: V_MPEG4/ISO/AVC
Продолжительность: 1 ч. 8 м.
Битрейт: 4143 Кбит/сек
Ширина: 1920 пикселей
Высота: 1032 пикселя
Соотношение сторон: 1,860
Частота кадров: 23,976 кадра/сек
Цветовое пространство: YUV
Субдискретизация насыщенности: 4:2:0
Битовая глубина: 8 бит
Тип развёртки: Прогрессивная
Бит/(Пиксели*Кадры): 0.087
Размер потока: 1,93 Гбайт (88%)
Заголовок: Release by AlexKa
Библиотека кодирования: x264 core 120 r2120 0c7dab9
Настройки программы: cabac=1 / ref=4 / deblock=1:0:0 / analyse=0x3:0x133 / me=umh / subme=10 / psy=1 / psy_rd=1.00:0.00 / mixed_ref=1 / me_range=32 / chroma_me=1 / trellis=2 / 8x8dct=1 / cqm=0 / deadzone=21,11 / fast_pskip=0 / chroma_qp_offset=-2 / threads=12 / sliced_threads=0 / nr=0 / decimate=0 / interlaced=0 / bluray_compat=0 / constrained_intra=0 / bframes=3 / b_pyramid=2 / b_adapt=2 / b_bias=0 / direct=3 / weightb=1 / open_gop=0 / weightp=2 / keyint=240 / keyint_min=24 / scenecut=40 / intra_refresh=0 / rc_lookahead=60 / rc=2pass / mbtree=1 / bitrate=4143 / ratetol=1.0 / qcomp=0.60 / qpmin=0 / qpmax=69 / qpstep=4 / cplxblur=20.0 / qblur=0.5 / ip_ratio=1.40 / aq=1:1.00
Язык: Russian

Аудио
Идентификатор: 2
Формат: AC-3
Формат/Информация: Audio Coding 3
Расширение режима: CM (complete main)
Идентификатор кодека: A_AC3
Продолжительность: 1 ч. 8 м.
Вид битрейта: Постоянный
Битрейт: 448 Кбит/сек
Каналы: 6 каналов
Расположение каналов: Front: L C R, Side: L R, LFE
Частота: 48,0 КГц
Битовая глубина: 16 бит
Метод сжатия: С потерями
Размер потока: 218 Мбайт (10%)
Язык: Russian




Илья Муромец и Соловей Разбойник



Информация о фильме
Оригинальное название: Илья Муромец и Соловей Разбойник
Год выхода: 2007
Жанр: мультфильм, комедия, приключения
Режиссер: Владимир Торопчин
В ролях: Олег Табаков, Сергей Маковецкий, Валерий Соловьев, Екатерина Гороховская, Анатолий Петров, Андрей Толубеев, Олег Куликович, Юрий Тарасов, Наталья Данилова

О фильме: Славится земля русская богатырями богатырскими да разбойниками разбойничьими… А сверху всего князь княжеский сидит, за всем следит и порядок наводит, если нужно. Да только не всегда выходит у князя так, как нужно — правильно. Вот и сейчас — с богатырём поругался да от Соловья Разбойника урон потерпел немалый: увёл бандит окаянный казну государственную прямо из-под носа!

Что делать князю? А ничего особенного — на то он и князь, чтоб из любой ситуации выход найти! Вот и отправились князь с Ильёй на поиски похищенного, а за ними вслед увязалась корреспондентка летописи «Новая береста». А дорога непростая выдалась, до самого Царьграда довела, где встретил их Император Византийский, да только незадача вышла — повздорили наши герои с императором этим, и заключил он против Князя Киевского и Земель русских союз с Соловьем Разбойником…




Выпущено: Анимационная студия "Мельница"
Продолжительность: 01:19:31
Перевод: Оригинал

Файл
Кодек: x264
Качество: BDRip (источник: Blu-ray Disc)
Видео: 1920x1032 (1,860), 23.976 fps, 3486 kbps
Звук: 48 kHz, AC-3, 6 ch, 448 kbps

Скриншоты

Общее
Уникальный идентификатор: 240563417903917766014697333694851693521 (0xB4FAD439C59CAEBBBE3DA7C89AC3BBD1)
Полное имя: Ilya.Muromets.i.Solovey.Razboynik.2007.BDRip.1080p.Rus.mkv
Формат: Matroska
Версия формата: Version 2
Размер файла: 2,19 Гбайт
Продолжительность: 1 ч. 19 м.
Общий поток: 3935 Кбит/сек
Название фильма: Илья Муромец и Соловей Разбойник (2007)
Дата кодирования: UTC 2011-12-12 20:20:10
Программа кодирования: mkvmerge v4.0.0 ('The Stars were mine') сборка от Jun6 2010 16:18:42
Библиотека кодирования: libebml v1.0.0 + libmatroska v1.0.0

Видео
Идентификатор: 1
Формат: AVC
Формат/Информация: Advanced Video Codec
Профиль формата: High@L4.1
Параметр CABAC формата: Да
Параметр ReFrames формата: 4 кадра
Идентификатор кодека: V_MPEG4/ISO/AVC
Продолжительность: 1 ч. 19 м.
Битрейт: 3486 Кбит/сек
Ширина: 1920 пикселей
Высота: 1032 пикселя
Соотношение сторон: 1,860
Частота кадров: 23,976 кадра/сек
Цветовое пространство: YUV
Субдискретизация насыщенности: 4:2:0
Битовая глубина: 8 бит
Тип развёртки: Прогрессивная
Бит/(Пиксели*Кадры): 0.073
Размер потока: 1,89 Гбайт (87%)
Заголовок: Release by AlexKa
Библиотека кодирования: x264 core 120 r2120 0c7dab9
Настройки программы: cabac=1 / ref=4 / deblock=1:0:0 / analyse=0x3:0x133 / me=umh / subme=10 / psy=1 / psy_rd=1.00:0.00 / mixed_ref=1 / me_range=32 / chroma_me=1 / trellis=2 / 8x8dct=1 / cqm=0 / deadzone=21,11 / fast_pskip=0 / chroma_qp_offset=-2 / threads=12 / sliced_threads=0 / nr=0 / decimate=0 / interlaced=0 / bluray_compat=0 / constrained_intra=0 / bframes=3 / b_pyramid=2 / b_adapt=2 / b_bias=0 / direct=3 / weightb=1 / open_gop=0 / weightp=2 / keyint=240 / keyint_min=24 / scenecut=40 / intra_refresh=0 / rc_lookahead=60 / rc=2pass / mbtree=1 / bitrate=3486 / ratetol=1.0 / qcomp=0.60 / qpmin=0 / qpmax=69 / qpstep=4 / cplxblur=20.0 / qblur=0.5 / ip_ratio=1.40 / aq=1:1.00
Язык: Russian

Аудио
Идентификатор: 2
Формат: AC-3
Формат/Информация: Audio Coding 3
Расширение режима: CM (complete main)
Идентификатор кодека: A_AC3
Продолжительность: 1 ч. 19 м.
Вид битрейта: Постоянный
Битрейт: 448 Кбит/сек
Каналы: 6 каналов
Расположение каналов: Front: L C R, Side: L R, LFE
Частота: 48,0 КГц
Битовая глубина: 16 бит
Метод сжатия: С потерями
Размер потока: 255 Мбайт (11%)
Язык: Russian




Три богатыря и Шамаханская царица



Информация о фильме
Оригинальное название: Три богатыря и Шамаханская царица
Год выхода: 2010
Жанр: мультфильм, комедия, приключения, семейный
Режиссер: Сергей Глезин
В ролях: Дмитрий Быковский-Ромашов, Валерий Соловьев, Олег Куликович, Сергей Маковецкий, Анна Геллер, Дмитрий Высоцкий, Константин Бронзит, Мария Цветкова-Овсянникова, Елена Шульман, Лия Медведева

О фильме: Легендарная Шамаханская царица, которая сводила с ума многих царей и простых смертных, положила свой глаз и на Киевского князя. Тот заболел любовью странной по ней. Но чтобы доставить в целости и сохранности эту чудо-богиню в Киев-Град, срочно из отпуска вызывают всех троих, уже знакомых нам, богатырей: Алёшу Поповича, Добрыню Никитича и Илью Муромца. Теперь троица должна решить, как быть дальше? Вроде бы и слухи о царице ходят нелестные, и князя жаль.




Выпущено: Анимационная студия "Мельница"
Продолжительность: 01:16:32
Перевод: Оригинал

Файл
Кодек: x264
Качество: BDRip (источник: Blu-ray Disc)
Видео: 1920x1080 (16:9), 24 fps, 3639 kbps
Звук: 48 kHz, AC-3, 6 ch, 448 kbps

Скриншоты

Общее
Уникальный идентификатор: 230488286478148010314782013789327705949 (0xAD666DE5061C326BA26151B9B13DC75D)
Полное имя: Tri.Bogatyrya.i.Shamakhanskaya.Tsaritsa.2010.BDRip.1080p.Rus.mkv
Формат: Matroska
Версия формата: Version 2
Размер файла: 2,19 Гбайт
Продолжительность: 1 ч. 16 м.
Общий поток: 4089 Кбит/сек
Название фильма: Три богатыря и Шамаханская царица (2010)
Дата кодирования: UTC 2011-12-12 23:30:01
Программа кодирования: mkvmerge v4.0.0 ('The Stars were mine') сборка от Jun6 2010 16:18:42
Библиотека кодирования: libebml v1.0.0 + libmatroska v1.0.0

Видео
Идентификатор: 1
Формат: AVC
Формат/Информация: Advanced Video Codec
Профиль формата: High@L4.1
Параметр CABAC формата: Да
Параметр ReFrames формата: 4 кадра
Идентификатор кодека: V_MPEG4/ISO/AVC
Продолжительность: 1 ч. 16 м.
Битрейт: 3639 Кбит/сек
Ширина: 1920 пикселей
Высота: 1080 пикселей
Соотношение сторон: 16:9
Частота кадров: 24,000 кадра/сек
Цветовое пространство: YUV
Субдискретизация насыщенности: 4:2:0
Битовая глубина: 8 бит
Тип развёртки: Прогрессивная
Бит/(Пиксели*Кадры): 0.073
Размер потока: 1,90 Гбайт (87%)
Заголовок: Release by AlexKa
Библиотека кодирования: x264 core 120 r2120 0c7dab9
Настройки программы: cabac=1 / ref=4 / deblock=1:0:0 / analyse=0x3:0x133 / me=umh / subme=10 / psy=1 / psy_rd=1.00:0.00 / mixed_ref=1 / me_range=32 / chroma_me=1 / trellis=2 / 8x8dct=1 / cqm=0 / deadzone=21,11 / fast_pskip=0 / chroma_qp_offset=-2 / threads=12 / sliced_threads=0 / nr=0 / decimate=0 / interlaced=0 / bluray_compat=0 / constrained_intra=0 / bframes=3 / b_pyramid=2 / b_adapt=2 / b_bias=0 / direct=3 / weightb=1 / open_gop=0 / weightp=2 / keyint=240 / keyint_min=24 / scenecut=40 / intra_refresh=0 / rc_lookahead=60 / rc=2pass / mbtree=1 / bitrate=3639 / ratetol=1.0 / qcomp=0.60 / qpmin=0 / qpmax=69 / qpstep=4 / cplxblur=20.0 / qblur=0.5 / ip_ratio=1.40 / aq=1:1.00
Язык: Russian

Аудио
Идентификатор: 2
Формат: AC-3
Формат/Информация: Audio Coding 3
Расширение режима: CM (complete main)
Идентификатор кодека: A_AC3
Продолжительность: 1 ч. 16 м.
Вид битрейта: Постоянный
Битрейт: 448 Кбит/сек
Каналы: 6 каналов
Расположение каналов: Front: L C R, Side: L R, LFE
Частота: 48,0 КГц
Битовая глубина: 16 бит
Метод сжатия: С потерями
Размер потока: 245 Мбайт (11%)
Язык: Russian




реклама партнёра


Вернуться к началу
 Профиль Отправить личное сообщение  
 
   Похожие торренты   Автор   Торрент   Размер 
В этой теме нет новых непрочитанных сообщений. Три богатыря: Ход Конем (Константин Феоктистов) [мультфильм, комедия, приключения, фэнтези, 2014] BDRip 1080p [Лицензия]

Dracon

26 | 2

6.27 ГБ

В этой теме нет новых непрочитанных сообщений. Три богатыря: Ход конем (Константин Феоктистов) [мультфильм, комедия, приключения, фэнтези, 2014] BDRip 1080p [Лицензия | 3D-Video]

Dracon

232 | 6

3.26 ГБ

В этой теме нет новых непрочитанных сообщений. Три богатыря: Ход конем (Константин Феоктистов) [мультфильм, комедия, приключения, фэнтези, 2014] WEB-DLRip 1080p

Dracon

60 | 2

2.7 ГБ

В этой теме нет новых непрочитанных сообщений. Три богатыря: Ход Конем (Константин Феоктистов) [мультфильм, комедия, приключения, фэнтези, 2014] BDRemux 1080p [Лицензия]

Dracon

7 | 2

14.41 ГБ

В этой теме нет новых непрочитанных сообщений. Три богатыря: Ход конем (Константин Феоктистов) [мультфильм, комедия, приключения, фэнтези, 2014] BDRip 720p [Лицензия]

Dracon

15 | 2

3.65 ГБ

В этой теме нет новых непрочитанных сообщений. Терминал / The Terminal [драма, комедия, 2004] BDRip 1080p, Dub+Mvo+Dvo+Sub [60 fps]

salma3

33 | 10

14.1 ГБ

В этой теме нет новых непрочитанных сообщений. Охотники за разумом / Mindhunters [триллер, криминал, детектив, 2004] BDRip 1080p, Dub+Dvo+Avo+Sub

salma3

53 | 4

11.83 ГБ


Начать новую тему Ответить на тему  [ 1 сообщение ] 




Для Мосгорсуда, Роскомнадзора и рекламодателей:: mosgorsud-torrent[собачка]yandex.ru