Торрент файл
скачать торрент магнет ссылка Добавлен: 10 дек 2011, 15:56
Размер: 1.46 ГБ
Сидеров: 45
Личеров: 7
Статус: (Dracon)
Автор

СообщениеДобавлено: 10 дек 2011, 15:56 

Не в сети
Зам. Админа
Аватара пользователя
Дата регистрации:
02 дек 2010, 12:39
Спасибо: 12461 / 214
Сообщения: 27968

Год выхода: 2011
Жанр: мультфильм
Режиссер: Марк Балдо / Mark Baldo, Терри Классен / Terry Klassen
В ролях: Диана Каарина /Diana Kaarina/, Рейчел Харрисон /Rachel Harrison/, Лорен Лавойе /Lauren Lavoie/, Эшлин Драммонд /Ashlyn Drummond/, Марика Хендрикс /Maryke Hendrikse/, Патриция Дрэйк /Patricia Drake/, Чиара Занни /Chiara Zanni/

О фильме:
Барби и ее сестры отправляются в Нью-Йорк, чтобы отметить Рождество порознь, но их планы рушит снежная буря, и праздник приходится справлять в тесном семейном кругу.


Страна: США
Студия: Universal Studios
Продолжительность: 01:10:29
Перевод: Профессиональный (полное дублирование) / Оригинал (английский)

Кодек: XviD / AC3
Качество: DVDRip
Видео: XviD, 720x416 (16:9), 25.000 fps, 2 186 Kbps (0.292 bit/pixel)
Звук:
Аудио #1: AC-3, 48.0 KHz, 6 ch, 384 Kbps, CBR (Russian)
Аудио #2: AC-3, 48.0 KHz, 6 ch, 384 Kbps, CBR (English)

General
Complete name: E:Barbie.A.Perfect.Christmas_DVDRip.1400_[Rutor.org].avi
Format: AVI
Format/Info: Audio Video Interleave
File size: 1.46 GiB
Duration: 1h 10mn
Overall bit rate: 2 963 Kbps
Writing application: VirtualDubMod 1.5.4.1 (build 2178/release)
Writing library: VirtualDubMod build 2178/release

Video
ID: 0
Format: MPEG-4 Visual
Format profile: Advanced Simple@L5
Format settings, BVOP: 1
Format settings, QPel: No
Format settings, GMC: No warppoints
Format settings, Matrix: Custom
Codec ID: XVID
Codec ID/Hint: XviD
Duration: 1h 10mn
Bit rate: 2 186 Kbps
Width: 720 pixels
Height: 416 pixels
Display aspect ratio: 16:9
Frame rate: 25.000 fps
Color space: YUV
Chroma subsampling: 4:2:0
Bit depth: 8 bits
Scan type: Progressive
Compression mode: Lossy
Bits/(Pixel*Frame): 0.292
Stream size: 1.08 GiB (74%)
Writing library: XviD 64

Audio #1
ID: 1
Format: AC-3
Format/Info: Audio Coding 3
Mode extension: CM (complete main)
Codec ID: 2000
Duration: 1h 10mn
Bit rate mode: Constant
Bit rate: 384 Kbps
Channel(s): 6 channels
Channel positions: Front: L C R, Side: L R, LFE
Sampling rate: 48.0 KHz
Bit depth: 16 bits
Compression mode: Lossy
Delay relative to video: 24ms
Stream size: 194 MiB (13%)
Alignment: Split accross interleaves
Interleave, duration: 96 ms (2.40 video frames)
Interleave, preload duration: 96 ms
Language: Russian

Audio #2
ID: 2
Format: AC-3
Format/Info: Audio Coding 3
Mode extension: CM (complete main)
Codec ID: 2000
Duration: 1h 10mn
Bit rate mode: Constant
Bit rate: 384 Kbps
Channel(s): 6 channels
Channel positions: Front: L C R, Side: L R, LFE
Sampling rate: 48.0 KHz
Bit depth: 16 bits
Compression mode: Lossy
Delay relative to video: 24ms
Stream size: 194 MiB (13%)
Alignment: Split accross interleaves
Interleave, duration: 96 ms (2.40 video frames)
Interleave, preload duration: 96 ms
Language: English




реклама партнёра


Вернуться к началу
 Профиль  
 
   Похожие торренты   Автор   Торрент   Размер 
В этой теме нет новых непрочитанных сообщений. Барби: Жемчужная Принцесса / Barbie: The Pearl Princess [мультфильм, 2014] BDRip, Dub [Лицензия]

salma3

862 | 40

1.37 ГБ

В этой теме нет новых непрочитанных сообщений. Барби и команда шпионов / Barbie: Spy Squad [мультфильм, семейный, 2016] BDRip, Dub [Лицензия]

salma3

99 | 8

1.47 ГБ

В этой теме нет новых непрочитанных сообщений. Очень странное рождество / Рождество с волшебными родителями / A Fairly Odd Christmas (Сэвидж Стив Холланд) [2012, фэнтези, комедия, семейный, SATRip] DUB

Nickolas3435

35 | 6

1.08 ГБ

В этой теме нет новых непрочитанных сообщений. Свадьба на Рождество / A Christmas Wedding [Мелодрама,Комедия, 2006] DVDRip, Mvo

salma3

0 | 2

1.37 ГБ

В этой теме нет новых непрочитанных сообщений. Рождество с трупаками / A Cadaver Christmas [Ужасы, комедия, 2011] BDRip 720p, Dvo

salma3

9 | 2

4.48 ГБ

В этой теме нет новых непрочитанных сообщений. Кот Феликс спасает рождество / Котенок Феликс спасает Рождество / Miracle in Toyland [Мультфильм, мюзикл, семейный, 2004] DVDRip, Dvo

salma3

6 | 6

1.3 ГБ

В этой теме нет новых непрочитанных сообщений. Рождество / This Christmas [Комедия, драма, 2007] HDRip-AVC, Mvo+Sub

salma3

13 | 2

2.79 ГБ


Начать новую тему Ответить на тему  [ 1 сообщение ] 




Для Мосгорсуда, Роскомнадзора и рекламодателей:: mosgorsud-torrent[собачка]yandex.ru