Торрент файл
скачать торрент магнет ссылка Добавлен: 04 ноя 2011, 18:48
Размер: 2.92 ГБ
Сидеров: 43
Личеров: 8
Статус: (Aleksandr.ru)
Автор

СообщениеДобавлено: 04 ноя 2011, 18:48 

Не в сети
Супермодератор
Аватара пользователя
Дата регистрации:
22 май 2010, 12:40
Спасибо: 2027 / 98
Сообщения: 2963
Откуда: Н.Новгород
Название: Чебурашка и крокодил Гена. Сборник мультфильмов
Год выхода: 1969
Жанр:мультфильм, короткометражка, семейный
Режиссер: Роман Качанов
В ролях: Василий Ливанов, Клара Румянова, Владимир Раутбарт, Владимир Кенигсон, Тамара Дмитриева

Описание:Знаменитая мультипликационная экранизация произведений Эдуарда Успенского.



Название: Чебурашка
Год выхода: 1972
Жанр: мультфильм, короткометражка, семейный
Режиссер: Роман Качанов
В ролях: Тамара Дмитриева, Василий Ливанов, Клара Румянова, Владимир Ферапонтов

Описание: Приключения доброго крокодила Гены и его друга Чебурашки - неизвестного науке зверя, но зато доброго и милого.



Название: Шапокляк
Год выхода: 1974
Жанр:мультфильм, короткометражка, семейный
Режиссер: Роман Качанов
В ролях: Василий Ливанов, Ирина Мазинг, Клара Румянова, Владимир Ферапонтов

Описание: Третий фильм из серии картин о приключениях Чебурашки, Крокодила Гены и старухи Шапокляк, в котором они выступают как защитники природы.



Название: Чебурашка идет в школу
Год выхода: 1983
Жанр: мультфильм, короткометражка, семейный
Режиссер: Роман Качанов
В ролях: Василий Ливанов, Клара Румянова, Георгий Бурков, Юрий Андреев

Описание: Крокодил Гена выясняет, что Чебурашка не умеет читать и хочет устроить его в школу. Им неожиданно помогает старуха Шапокляк, которая устраивает срочное завершение ремонта школы к первому сентября. Крокодил Гена становится преподавателем по живой природе.



Название: Варежка
Год выхода: 1967
Жанр: мультфильм, короткометражка
Режиссер: Роман Качанов

Описание: О девочке, которой мама не позволяла иметь собаку. И тогда красная шерстяная варежка обратилась в умного веселого щенка, с которым девочка дружила и играла.




Качество: BDRip720p
Формат: MKV
Видео кодек: H.26x
Аудио кодек: AC3
Видео: English, 4999 Кбит/сек, 970*720 (4:3), в 25,000 кадр/сек, AVC (High@L4.1)
Аудио: Russian, 448 Кбит/сек, 48,0 КГц, 16 бит, 6 канала(ов), AC-3

Код:
Общее
Уникальный идентификатор: 210071814468752894040176598117703206145 (0x9E0A5C1B92650039B5F66F3D9413C501)
Полное имя: E:торрентCheburashka.i.krokodil.gena.1967-1983.BDRip720p.mkv
Формат: Matroska
Размер файла: 2,92 Гбайт
Продолжительность: 1 ч. 16 м.
Общий поток: 5448 Кбит/сек
Дата кодирования: UTC 2011-11-04 12:52:30
Программа кодирования: mkvmerge v5.0.1 ('Es ist Sommer') built on Oct9 2011 11:55:43
Библиотека кодирования: libebml v1.2.2 + libmatroska v1.3.0

Видео
Идентификатор: 1
Формат: AVC
Формат/Информация: Advanced Video Codec
Профиль формата: High@L4.1
Параметр CABAC формата: Да
Параметр ReFrames формата: 8 кадры
Параметры GOP формата: M=1, N=28
Идентификатор кодека: V_MPEG4/ISO/AVC
Продолжительность: 1 ч. 16 м.
Битрейт: 4999 Кбит/сек
Ширина: 970 пикс.
Высота: 720 пикс.
Соотношение сторон: 4:3
Частота кадров: 25,000 кадр/сек
Цветовое пространство: YUV
Подвыборка цветности: 4:2:0
Битовая глубина: 8 бит
Тип развёртки: Прогрессивная
Бит/(Пиксели*Кадры): 0.286
Размер потока: 2,62 Гбайт (90%)
Библиотека кодирования: x264 core 119 r2106 07efeb4
Настройки программы: cabac=1 / ref=8 / deblock=1:-1:-1 / analyse=0x3:0x133 / me=umh / subme=9 / psy=1 / psy_rd=0.80:0.15 / mixed_ref=1 / me_range=32 / chroma_me=1 / trellis=2 / 8x8dct=1 / cqm=0 / deadzone=21,11 / fast_pskip=0 / chroma_qp_offset=-3 / threads=6 / sliced_threads=0 / nr=0 / decimate=0 / interlaced=0 / bluray_compat=0 / constrained_intra=0 / bframes=6 / b_pyramid=2 / b_adapt=2 / b_bias=0 / direct=1 / weightb=1 / open_gop=0 / weightp=2 / keyint=250 / keyint_min=23 / scenecut=40 / intra_refresh=0 / rc_lookahead=60 / rc=2pass / mbtree=1 / bitrate=4999 / ratetol=1.0 / qcomp=0.75 / qpmin=10 / qpmax=51 / qpstep=4 / cplxblur=20.0 / qblur=0.5 / ip_ratio=1.40 / aq=1:0.80
Язык: English

Аудио
Идентификатор: 2
Формат: AC-3
Формат/Информация: Audio Coding 3
Расширение режима: CM (complete main)
Идентификатор кодека: A_AC3
Продолжительность: 1 ч. 16 м.
Вид битрейта: Постоянный
Битрейт: 448 Кбит/сек
Канал(ы): 6 канала(ов)
Расположение каналов: Front: L C R, Side: L R, LFE
Частота: 48,0 КГц
Битовая глубина: 16 бит
Метод сжатия: С потерями
Размер потока: 246 Мбайт (8%)
Язык: Russian

Меню
00:00:00.000: en:Chapter 01
00:19:30.520: en:Chapter 02
00:38:31.200: en:Chapter 03
00:57:22.160: en:Chapter 04
01:06:44.160: en:Chapter 05
01:16:37.439: en:Chapter 06






Релиз от:




реклама партнёра


Вернуться к началу
 Профиль Отправить личное сообщение  
 
   Похожие торренты   Автор   Торрент   Размер 
В этой теме нет новых непрочитанных сообщений. С Новым годом! Сборник мультфильмов (Мстислав Пащенко, Владимир Дегтярёв, Леонид Амальрик, Борис Дежкин) [1950-1969, Приключения, DVDRip]

Nickolas3435

269 | 11

1.36 ГБ

В этой теме нет новых непрочитанных сообщений. Трое из Простоквашино. Сборник мультфильмов (Владимир Попов) [1978, мультфильм, семейный, BDRip, 1080p] / Мультфильмы (HD/BD Video)

marya111

11 | 1

2.62 ГБ

В этой теме нет новых непрочитанных сообщений. Крокодил Данди / Crocodile Dundee [Комедия, приключения, 1986] BDRip 720p, Dub+4Mvo+4Avo+Sub

salma3

41 | 6

4.98 ГБ

В этой теме нет новых непрочитанных сообщений. Чебурашка / Cheburashka [Мультфильм, детский, семейный, 2014] WEBRip 720p

Dracon

1253 | 14

1.99 ГБ

В этой теме нет новых непрочитанных сообщений. Гена-Бетон (Роман Качанов) [Комедия, 2014] WebRip 720p

Dracon

520 | 5

1.25 ГБ

В этой теме нет новых непрочитанных сообщений. Топаз / Topaz [триллер, детектив, 1969] BDRip 720p, Dub+Sub

salma3

26 | 8

7.76 ГБ

В этой теме нет новых непрочитанных сообщений. Робо-крокодил / Robocroc [ужасы, фантастика, 2013] WEB-DL 720p, Mvo

salma3

32 | 7

2.87 ГБ


Начать новую тему Ответить на тему  [ 1 сообщение ] 




Для Мосгорсуда, Роскомнадзора и рекламодателей:: mosgorsud-torrent[собачка]yandex.ru