Торрент файл
скачать торрент магнет ссылка Добавлен: 19 окт 2011, 19:34
Размер: 4.22 ГБ
Сидеров: 6
Личеров: 4
Статус: (Aleksandr.ru)
Автор

СообщениеДобавлено: 19 окт 2011, 19:34 

Не в сети
Супермодератор
Аватара пользователя
Дата регистрации:
22 май 2010, 12:40
Спасибо: 2157 / 98
Сообщения: 2956
Откуда: Н.Новгород



















Информация о фильме
Название: Кунг-фу Панда 2
Оригинальное название: Kung Fu Panda 2
Год выхода: 2011
Жанр: мультфильм, боевик, комедия, приключения, семейный
Режиссер: Дженнифер Ю
В ролях: Анджелина Джоли, Гари Олдман, Сет Роген, Жан-Клод Ван Дамм, Джек Блэк, Джеки Чан, Дастин Хоффман, Дэвид Кросс, Люси Лью, Мишель Йео

О фильме:
Панда По, величайший в мире фанат кунг-фу, продолжает свое путешествие, как и гласит древнее пророчество, осваивая искусство кунг-фу.


Страна: США, DreamWorks Animation
Продолжительность: 01:30:23
Перевод: Дублированное [лицензия]

Файл
Видеокодек: MPEG 2
Битрейт видео: ~ 6101 Кбит/сек
Размер кадра: 720x480 (16:9) NTSC
Аудио: Dolby Digital Audio / Русский / 448 kbps 5.1 / 48 kHz / 448 kbps
Субтитры: Русские, английские
Общее
Полное имя :KUNG_FU_PANDA_2_2011_DVD5_NNM-CLUBVIDEO_TSVTS_01_1.VOB
Формат : MPEG-PS
Размер файла : 1024 Мбайт
Продолжительность : 21 м.
Общий поток : 6682 Кбит/сек

Видео
Идентификатор : 224 (0xE0)
Формат : MPEG Video
Версия формата : Version 2
Профиль формата : Main@Main
Параметр BVOP формата : Да
Параметр матрицы формата : По умолчанию
Параметр GOP формата : M=3, N=12
Продолжительность : 21 м.
Битрейт : 6101 Кбит/сек
Максимальный битрейт : 6103 Кбит/сек
Ширина : 720 пикселей
Высота : 480 пикселей
Соотношение сторон : 16:9
Частота кадров : 23,976 кадра/сек
Стандарт вещания : NTSC
Цветовое пространство : YUV
Субдискретизация насыщенности : 4:2:0
Битовая глубина : 8 бит
Тип развёртки : Прогрессивная
Порядок развёртки : 2:3 Pulldown
Метод сжатия : С потерями
Бит/(Пиксели*Кадры) : 0.736
Размер потока : 935 Мбайт (91%)

Аудио
Идентификатор : 189 (0xBD)-128 (0x80)
Формат : AC-3
Формат/Информация : Audio Coding 3
Расширение режима : CM (complete main)
Режим смешивания : DVD-Video
Продолжительность : 21 м.
Вид битрейта : Постоянный
Битрейт : 448 Кбит/сек
Каналы : 6 каналов
Расположение каналов : Front: L C R, Side: L R, LFE
Частота : 48,0 КГц
Битовая глубина : 16 бит
Метод сжатия : С потерями
Размер потока : 68,6 Мбайт (7%)

Текст #1
Идентификатор : 189 (0xBD)-32 (0x20)
Формат : RLE
Формат/Информация : Run-length encoding
Режим смешивания : DVD-Video

Текст #2
Идентификатор : 189 (0xBD)-33 (0x21)
Формат : RLE
Формат/Информация : Run-length encoding
Режим смешивания : DVD-Video




Релиз от:




реклама партнёра


Вернуться к началу
 Профиль Отправить личное сообщение  
 
   Похожие торренты   Автор   Торрент   Размер 
В этой теме нет новых непрочитанных сообщений. Кунг-фу Панда 3 / Kung Fu Panda 3 (2016) BDRip [H.264/720p-LQ]

marya111

48 | 5

2.19 ГБ

В этой теме нет новых непрочитанных сообщений. Кунг-фу Панда 3 / Kung Fu Panda 3 (2016) BDRemux [H.264/1080p]

marya111

26 | 5

21.72 ГБ

В этой теме нет новых непрочитанных сообщений. Кунг-фу Панда 3 / Kung Fu Panda 3 [Боевик, Комедия, Приключения, Семейный, 2016] WEBRip, Dub [Line]

salma3

38 | 0

1.31 ГБ

В этой теме нет новых непрочитанных сообщений. Кунг-фу Панда 3 / Kung Fu Panda 3 [мультфильм, боевик, комедия, приключения, семейный, 2016] Blu-Ray, Dub [Лицензия]

salma3

21 | 9

38.98 ГБ

В этой теме нет новых непрочитанных сообщений. Кунг-фу Панда 3 / Kung Fu Panda 3 [Боевик, Комедия, Приключения, Семейный, 2016] WEBRip 1080p, Dub [Line]

salma3

0 | 0

3.43 ГБ

В этой теме нет новых непрочитанных сообщений. Кунг-фу Панда 3 / Kung Fu Panda 3 (мультфильм, боевик, комедия, приключения, семейный, 2016) BDRip от HELLYWOOD | Лицензия

marya111

130 | 23

2.19 ГБ

В этой теме нет новых непрочитанных сообщений. Кунг-фу Панда 3 / Kung Fu Panda 3 [2015, мультфильм, боевик, комедия, приключения, семейный, WEBRip | Чистый звук] Dub

marya111

0 | 2

1.37 ГБ


Начать новую тему Ответить на тему  [ 1 сообщение ] 




Для Мосгорсуда, Роскомнадзора и рекламодателей:: mosgorsud-torrent[собачка]yandex.ru