Оценка торрента
5 50%  50%  [ 1 ]
5 50%  50%  [ 1 ]
4 0%  0%  [ 0 ]
3 0%  0%  [ 0 ]
2 0%  0%  [ 0 ]
1 0%  0%  [ 0 ]
4 0%  0%  [ 0 ]
3 0%  0%  [ 0 ]
2 0%  0%  [ 0 ]
1 0%  0%  [ 0 ]
Всего голосов : 2
Торрент файл
скачать торрент магнет ссылка Добавлен: 27 сен 2011, 09:43
Размер: 4.37 ГБ
Сидеров: 51
Личеров: 14
Автор

СообщениеДобавлено: 27 сен 2011, 09:43 

Не в сети
Супермодератор
Аватара пользователя
Дата регистрации:
22 май 2010, 12:40
Спасибо: 2157 / 98
Сообщения: 2956
Откуда: Н.Новгород

Информация о фильме
Название: Астробой
Оригинальное название: Astro Boy
Год выхода: 2009
Жанр: мультфильм, фантастика, боевик, семейный
Режиссер: Дэвид Бауэрс
В ролях: Шарлиз Терон, Фредди Хаймор, Райан Стайлз, Юджин Леви, Николас Кейдж, Дональд Сазерленд, Билл Найи, Дэвид Алан Грир, Алан Тьюдик, Ньюэлл Александр

О фильме: В космическом мегаполисе Метро живет гениальный ученый доктор Тенма. Оплакивая своего погибшего сына, он создает Астробоя, мальчика-робота, наделенного самыми лучшими человеческими качествами и сверхъестественными способностями супер-героя. Но каково же было разочарование Астробоя, когда он узнал, что он… не настоящий человек.

В это время Астробой попадает в поле зрения преступных военных кругов, которые хотят использовать силу маленького робота для захвата Земли…




Выпущено: Imagi Animation Studios
Продолжительность: 01:33:49
Перевод: Дублированный

Файл
Кодек: x264
Качество: BDRip (источник: Blu-ray Disc)
Видео: 1920x1040 (16:9), 23.976 fps, 6225 kbps
Звук: 48 kHz, AC-3, 6 ch, 448 kbps
Субтитры: Русские, Английские
Скачать: сэмпл

Скриншоты

Общее
Уникальный идентификатор: 210203529686285626151102891038276507690 (0x9E23BA2B57F648119B11518AF746D82A)
Полное имя: Astro.Boy.2009.BDRip.1080p.Rus.mkv
Формат: Matroska
Версия формата: Version 2
Размер файла: 4,37 Гбайт
Продолжительность: 1 ч. 33 м.
Общий поток: 6672 Кбит/сек
Дата кодирования: UTC 2011-09-26 14:59:51
Программа кодирования: mkvmerge v4.0.0 ('The Stars were mine') сборка от Jun6 2010 16:18:42
Библиотека кодирования: libebml v1.0.0 + libmatroska v1.0.0

Видео
Идентификатор: 1
Формат: AVC
Формат/Информация: Advanced Video Codec
Профиль формата: High@L4.1
Параметр CABAC формата: Да
Параметр ReFrames формата: 5 кадров
Идентификатор кодека: V_MPEG4/ISO/AVC
Продолжительность: 1 ч. 33 м.
Битрейт: 6225 Кбит/сек
Ширина: 1920 пикселей
Высота: 816 пикселей
Соотношение сторон: 2,35:1
Частота кадров: 23,976 кадра/сек
Цветовое пространство: YUV
Субдискретизация насыщенности: 4:2:0
Битовая глубина: 8 бит
Тип развёртки: Прогрессивная
Бит/(Пиксели*Кадры): 0.166
Размер потока: 3,99 Гбайт (91%)
Библиотека кодирования: x264 core 118 r2085 8a62835
Настройки программы: cabac=1 / ref=5 / deblock=1:0:0 / analyse=0x3:0x133 / me=umh / subme=10 / psy=1 / psy_rd=1.00:0.00 / mixed_ref=1 / me_range=32 / chroma_me=1 / trellis=2 / 8x8dct=1 / cqm=0 / deadzone=21,11 / fast_pskip=0 / chroma_qp_offset=-2 / threads=12 / sliced_threads=0 / nr=0 / decimate=1 / interlaced=0 / bluray_compat=0 / constrained_intra=0 / bframes=3 / b_pyramid=2 / b_adapt=2 / b_bias=0 / direct=3 / weightb=1 / open_gop=0 / weightp=2 / keyint=240 / keyint_min=24 / scenecut=40 / intra_refresh=0 / rc_lookahead=60 / rc=2pass / mbtree=1 / bitrate=6225 / ratetol=1.0 / qcomp=0.60 / qpmin=0 / qpmax=69 / qpstep=4 / cplxblur=20.0 / qblur=0.5 / ip_ratio=1.40 / aq=1:1.00
Язык: English

Аудио
Идентификатор: 2
Формат: AC-3
Формат/Информация: Audio Coding 3
Расширение режима: CM (complete main)
Идентификатор кодека: A_AC3
Продолжительность: 1 ч. 33 м.
Вид битрейта: Постоянный
Битрейт: 448 Кбит/сек
Каналы: 6 каналов
Расположение каналов: Front: L C R, Side: L R, LFE
Частота: 48,0 КГц
Битовая глубина: 16 бит
Метод сжатия: С потерями
Размер потока: 301 Мбайт (7%)
Язык: Russian

Текст #1
Идентификатор: 3
Формат: UTF-8
Идентификатор кодека: S_TEXT/UTF8
Идентификатор кодека/Информация: UTF-8 Plain Text
Язык: Russian

Текст #2
Идентификатор: 4
Формат: UTF-8
Идентификатор кодека: S_TEXT/UTF8
Идентификатор кодека/Информация: UTF-8 Plain Text
Язык: English

Меню
00:00:00.000: :Chapter 01
00:05:26.492: :Chapter 02
00:12:40.509: :Chapter 03
00:17:41.602: :Chapter 04
00:22:41.151: :Chapter 05
00:26:56.489: :Chapter 06
00:29:30.393: :Chapter 07
00:33:34.762: :Chapter 08
00:37:24.784: :Chapter 09
00:42:14.240: :Chapter 10
00:47:46.321: :Chapter 11
00:52:19.052: :Chapter 12
00:57:24.357: :Chapter 13
01:00:14.611: :Chapter 14
01:06:49.005: :Chapter 15
01:13:00.959: :Chapter 16
01:18:20.028: :Chapter 17
01:22:15.347: :Chapter 18
01:33:48.372: :Chapter 19

x264 [info]: frame I:1644Avg QP:11.47size:263655
x264 [info]: frame P:45843 Avg QP:14.55size: 57189
x264 [info]: frame B:87465 Avg QP:19.55size: 15120




реклама партнёра


Вернуться к началу
 Профиль Отправить личное сообщение  
 
   Похожие торренты   Автор   Торрент   Размер 
В этой теме нет новых непрочитанных сообщений. Astro Lords: Oort Cloud [RTS, Action, Sci-Fi, Adventure, 2014] [Лицензия]

malvihka

5 | 2

857.08 МБ

В этой теме нет новых непрочитанных сообщений. Переправа / Crossing Over [драма, 2009] BDRip 1080p, Dvo+Sub

salma3

5 | 5

13.08 ГБ

В этой теме нет новых непрочитанных сообщений. Непристойное кино / Sex Pot [мелодрама, комедия, 2009] BDRip 1080p, Mvo

salma3

197 | 116

7.12 ГБ

В этой теме нет новых непрочитанных сообщений. Троцкий / The Trotsky [драма, комедия, 2009] BDRip 1080p, Mvo

salma3

24 | 15

11.29 ГБ

В этой теме нет новых непрочитанных сообщений. Соседка / Neighbor [Ужасы, триллер, 2009] BDRip 1080p, Avo+Sub

salma3

20 | 4

7.9 ГБ

В этой теме нет новых непрочитанных сообщений. Антихрист / Antichrist [ужасы, драма, 2009] BDRip 1080p, Mvo+Sub

salma3

67 | 15

4.37 ГБ

В этой теме нет новых непрочитанных сообщений. Дом дьявола / The House of the Devil [ужасы, 2009] BDRip 1080p, Avo

salma3

48 | 17

9.72 ГБ


Начать новую тему Ответить на тему  [ 1 сообщение ] 




Для Мосгорсуда, Роскомнадзора и рекламодателей:: mosgorsud-torrent[собачка]yandex.ru