Оценка торрента
1 0%  0%  [ 0 ]
2 0%  0%  [ 0 ]
1 0%  0%  [ 0 ]
2 0%  0%  [ 0 ]
4 0%  0%  [ 0 ]
4 0%  0%  [ 0 ]
2 0%  0%  [ 0 ]
1 0%  0%  [ 0 ]
2 0%  0%  [ 0 ]
1 0%  0%  [ 0 ]
Всего голосов : 0
Торрент файл
скачать торрент магнет ссылка Добавлен: 21 авг 2011, 21:32
Размер: 6.74 ГБ
Сидеров: 15
Личеров: 9
Автор

СообщениеДобавлено: 21 авг 2011, 21:32 

Не в сети
Супермодератор
Аватара пользователя
Дата регистрации:
22 май 2010, 12:40
Спасибо: 2157 / 98
Сообщения: 2956
Откуда: Н.Новгород

Информация о фильме
Название: Последняя фантазия: Духи внутри
Оригинальное название: Final Fantasy: The Spirits Within
Год выхода: 2001
Жанр: Мультфильм, фантастика, фэнтези, боевик, триллер, приключения
Режиссер: Хиронобу Сакагути, Мото Сакакибара
В ролях:
Роли озвучивали: Минг-На, Алек Болдуин, Винг Реймз, Стив Бушеми, Пери Гилпин, Дональд Сазерленд, Джеймс Вудс, Кит Дэвид, Джин Симмонс, Мэтт МакКензи
Роли дублировали:Евгения Игумнова , Станислав Концевич , Валерий Соловьев , Олег Куликович , Наталья Данилова , Вадим Яковлев , Сергей Паршин , Вадим Гущин , Елена Ставрогина , Анатолий Петров , Дмитрий Витов

О фильме:
Земля, год 2065... Планета в страшной опасности. На родину человечества напали монстры-фантомы из космоса, которым невозможно противостоять. Полупрозрачные чудовища, более похожие на порождения галлюцинирующего мозга, уже истребили большую часть человечества и скоро их господство над Землей станет полным.Судьба мира в руках горстки смельчаков — ученой Аки Росс, доктора Сиди и техноспецназа капитана Эдвардса, вступающих в последнее сражение с инопланетной нечистью.





Страна: США, Япония
Студия: Columbia Pictures, Square USA, Inc.
Продолжительность: 01:45:58
Перевод: Профессиональный (полное дублирование)

Файл
Кодек: H.264
Качество: BDRip720p
Видео: English, 4947 Кбит/сек, 1280*688 (1,860), в 23,976 кадр/сек, AVC (High@L4.1)
Звук:
Russian, 640 Кбит/сек, 48,0 КГц, 16 бит, 6 канала(ов), AC-3 |Дубляж
English, 320 Кбит/сек, 48,0 КГц, 16 бит, 6 канала(ов), AC-3 | Оригинал
Дополнительно отдельными файлами :
Профессиональный многоголосый закадровый(Blu-ray CEE )
Профессиональный многоголосый закадровый(Карусель)
Авторский закадровый(Дмитрий «Гоблин» Пучков)
Авторский закадровый(П.Гланц)
Авторский закадровый (Юрий Живов)
(640 Кбит/сек, 48,0 КГц, 16 бит, 6 канала(ов), AC-3 )
Субтитры: English - VobSub

Семпл
Общее
Уникальный идентификатор: 209673389946875421016168611741434670695 (0x9DBDA0431BA63EDD961840B1B78C6E67)
Полное имя: F:торрентFinal Fantasy The Spirits Within ( 2001)BDRip720pFinal Fantasy The Spirits Within ( 2001)BDRip720p.mkv
Формат: Matroska
Размер файла: 4,37 Гбайт
Продолжительность: 1 ч. 45 м.
Общий поток: 5906 Кбит/сек
Дата кодирования: UTC 2011-08-21 13:30:57
Программа кодирования: mkvmerge v4.9.1 ('Ich will') built on Jul 11 2011 23:53:15
Библиотека кодирования: libebml v1.2.1 + libmatroska v1.1.1

Видео
Идентификатор: 1
Формат: AVC
Формат/Информация: Advanced Video Codec
Профиль формата: High@L4.1
Параметр CABAC формата: Да
Параметр ReFrames формата: 9 кадры
Идентификатор кодека: V_MPEG4/ISO/AVC
Продолжительность: 1 ч. 45 м.
Битрейт: 4947 Кбит/сек
Ширина: 1280 пикс.
Высота: 688 пикс.
Соотношение сторон: 1,860
Частота кадров: 23,976 кадр/сек
Цветовое пространство: YUV
Подвыборка цветности: 4:2:0
Битовая глубина: 8 бит
Тип развёртки: Прогрессивная
Бит/(Пиксели*Кадры): 0.234
Размер потока: 3,57 Гбайт (82%)
Библиотека кодирования: x264 core 116 r2057 0ba8a9c
Настройки программы: cabac=1 / ref=9 / deblock=1:-3:-3 / analyse=0x3:0x133 / me=esa / subme=10 / psy=1 / psy_rd=0.70:0.10 / mixed_ref=1 / me_range=32 / chroma_me=1 / trellis=2 / 8x8dct=1 / cqm=0 / deadzone=21,11 / fast_pskip=0 / chroma_qp_offset=-2 / threads=6 / sliced_threads=0 / nr=0 / decimate=1 / interlaced=0 / bluray_compat=0 / constrained_intra=0 / bframes=8 / b_pyramid=2 / b_adapt=2 / b_bias=0 / direct=3 / weightb=1 / open_gop=0 / weightp=2 / keyint=250 / keyint_min=23 / scenecut=40 / intra_refresh=0 / rc_lookahead=50 / rc=2pass / mbtree=1 / bitrate=4947 / ratetol=1.0 / qcomp=0.60 / qpmin=0 / qpmax=69 / qpstep=4 / cplxblur=20.0 / qblur=0.5 / ip_ratio=1.40 / aq=1:0.80
Язык: English

Аудио #1
Идентификатор: 2
Формат: AC-3
Формат/Информация: Audio Coding 3
Расширение режима: CM (complete main)
Идентификатор кодека: A_AC3
Продолжительность: 1 ч. 45 м.
Вид битрейта: Постоянный
Битрейт: 640 Кбит/сек
Канал(ы): 6 канала(ов)
Расположение каналов: Front: L C R, Side: L R, LFE
Частота: 48,0 КГц
Битовая глубина: 16 бит
Метод сжатия: С потерями
Размер потока: 485 Мбайт (11%)
Язык: Russian

Аудио #2
Идентификатор: 3
Формат: AC-3
Формат/Информация: Audio Coding 3
Расширение режима: CM (complete main)
Идентификатор кодека: A_AC3
Продолжительность: 1 ч. 45 м.
Вид битрейта: Постоянный
Битрейт: 320 Кбит/сек
Канал(ы): 6 канала(ов)
Расположение каналов: Front: L C R, Side: L R, LFE
Частота: 48,0 КГц
Битовая глубина: 16 бит
Метод сжатия: С потерями
Размер потока: 243 Мбайт (5%)
Язык: English

Текст
Идентификатор: 4
Формат: VobSub
Режим смешивания: zlib
Идентификатор кодека: S_VOBSUB
Идентификатор кодека/Информация: The same subtitle format used on DVDs
Язык: English

Меню
00:00:00.000: en:00:00:00.000
00:10:02.101: en:00:10:02.101
00:13:08.746: en:00:13:08.746
00:17:28.380: en:00:17:28.380
00:21:06.682: en:00:21:06.682
00:27:43.078: en:00:27:43.078
00:34:57.178: en:00:34:57.178
00:41:22.271: en:00:41:22.271
00:46:38.045: en:00:46:38.045
00:52:41.908: en:00:52:41.908
00:58:09.444: en:00:58:09.444
01:03:28.721: en:01:03:28.721
01:13:36.328: en:01:13:36.328
01:18:43.260: en:01:18:43.260
01:23:36.094: en:01:23:36.094
01:30:28.464: en:01:30:28.464





Релиз от:




реклама партнёра


Вернуться к началу
 Профиль Отправить личное сообщение  
 
   Похожие торренты   Автор   Торрент   Размер 
В этой теме нет новых непрочитанных сообщений. Кингсглейв: Последняя фантазия XV / Kingsglaive: Final Fantasy XV [Мультфильм, фантастика, фэнтези, 2016] WEB-DL 720p, Mvo [iTunes]

salma3

0 | 0

3.72 ГБ

В этой теме нет новых непрочитанных сообщений. Кингсглейв: Последняя фантазия XV (мультфильм, фантастика, фэнтези, приключения, 2016) BDRip 720р от SuperMin | P | Лицензия

marya111

0 | 0

3.93 ГБ

В этой теме нет новых непрочитанных сообщений. Кингсглейв: Последняя фантазия XV / Kingsglaive: Final Fantasy XV (мультфильм, фантастика, фэнтези, драма, приключения, 2016) BDRip от HQCLUB | P | Лицензия

marya111

0 | 0

2.18 ГБ

В этой теме нет новых непрочитанных сообщений. Кингсглейв: Последняя фантазия XV / Kingsglaive: Final Fantasy XV (мультфильм, фантастика, фэнтези, приключения, 2016) BDRip HEVC 720р от SuperMin | Лицензия

marya111

56 | 3

2.59 ГБ

В этой теме нет новых непрочитанных сообщений. Кингсглейв: Последняя фантазия XV / Kingsglaive: Final Fantasy XV (Такэси Нодзуэ) [2016, мультфильм, фантастика, фэнтези, драма, приключения, BDRip | Лицензия] mvo

marya111

0 | 0

1.46 ГБ

В этой теме нет новых непрочитанных сообщений. Кингсглейв: Последняя фантазия XV / Kingsglaive: Final Fantasy XV [мультфильм, фантастика, фэнтези, 2016] WEB-DLRip, Mvo [iTunes]

salma3

1840 | 555

1.46 ГБ

В этой теме нет новых непрочитанных сообщений. Кингсглейв: Последняя фантазия XV / Kingsglaive: Final Fantasy XV [мультфильм, фантастика, фэнтези, драма, приключения, 2016] WEB-DL 1080p, Dub [iTunes]

marya111

730 | 8

3.96 ГБ


Начать новую тему Ответить на тему  [ 1 сообщение ] 




Для Мосгорсуда, Роскомнадзора и рекламодателей:: mosgorsud-torrent[собачка]yandex.ru