Оценка торрента
5 0%  0%  [ 0 ]
4 0%  0%  [ 0 ]
3 0%  0%  [ 0 ]
2 0%  0%  [ 0 ]
1 0%  0%  [ 0 ]
5 0%  0%  [ 0 ]
4 0%  0%  [ 0 ]
3 0%  0%  [ 0 ]
2 0%  0%  [ 0 ]
1 0%  0%  [ 0 ]
Всего голосов : 0
Торрент файл
скачать торрент магнет ссылка Добавлен: 02 июл 2011, 08:31
Размер: 93.73 МБ
Сидеров: 3
Личеров: 6
Автор

СообщениеДобавлено: 02 июл 2011, 08:31 

Не в сети
Супермодератор
Аватара пользователя
Дата регистрации:
22 май 2010, 12:40
Спасибо: 2163 / 101
Сообщения: 2958
Откуда: Н.Новгород
Итси-Битси Паучок / The Itsy Bitsy Spider
Страна: США
Жанр: мультфильм, короткометражка
Продолжительность: 00:07:03
Год выпуска: 1992
Перевод: Любительский (одноголосый закадровый) Selena_a
Озвучка: Jet
Русские субтитры: нет
Режиссёр: Мэттью О’Каллаган / Matthew O'Callaghan
Роли озвучивали: Джим Керри, Андреа Мартин, Тора Бёрч, Фрэнк Уэлкер, Клаудия Кристиан, Денис Кумагаи
Описание: Во время урока игры на фортепиано, учительница музыки обнаруживает безопасного крохотного паучка, в панике она вызывает истребителя насекомых.
Семпл: http://onemove.ru/51952/
Качество: TVRip
Формат: AVI
Видео: 1718 Кбит/сек, 640*284 (2,25:1) в 29,917 кадр/сек, MPEG-4 Visual (DivX 4)
Аудио: 128 Кбит/сек, 44,1 КГц, 2 канала, MPEG Audio (MP3)
Субтитры: отсутствуют
Подробные технические данные
Код:
Формат: AVI
Формат/Информация: Audio Video Interleave
Размер файла: 93,7 Мбайт
Продолжительность: 7 м. 3 с.
Общий поток: 1858 Кбит/сек
Программа кодирования: Lavf52.51.0
Библиотека кодирования: VirtualDub build 30009/release
Видео
Идентификатор: 0
Формат: MPEG-4 Visual
Профиль формата: Simple@L1
Параметр BVOP формата: Нет
Параметр QPel формата: Нет
Параметр GMC формата: Без точки перехода
Параметр матрицы формата: Default (H.263)
Идентификатор кодека: DIVX
Идентификатор кодека/Информация: Project Mayo
Идентификатор кодека/Подсказка: DivX 4
Продолжительность: 7 м. 3 с.
Битрейт: 1718 Кбит/сек
Ширина: 640 пикс.
Высота: 284 пикс.
Соотношение сторон: 2,25:1
Частота кадров: 29,917 кадр/сек
Цветовое пространство: YUV
Подвыборка цветности: 4:2:0
Битовая глубина: 8 бит
Тип развёртки: Прогрессивная
Метод сжатия: С потерями
Бит/(Пиксели*Кадры): 0.316
Размер потока: 86,7 Мбайт (92%)
Библиотека кодирования: Lavc52.53.0
Аудио
Идентификатор: 1
Формат: MPEG Audio
Версия формата: Version 1
Профиль формата: Layer 3
Режим: Joint stereo
Расширение режима: MS Stereo
Идентификатор кодека: 55
Идентификатор кодека/Подсказка: MP3
Продолжительность: 7 м. 3 с.
Вид битрейта: Постоянный
Битрейт: 128 Кбит/сек
Каналы: 2 канала
Частота: 44,1 КГц
Метод сжатия: С потерями
Размер потока: 6,46 Мбайт (7%)
Выравнивание: Разделение по промежуткам
Продолжительность промежутка: 33мс. (1,00 видеокадр)
Время предзагрузки промежутка: 500 ms
Скриншоты





Вернуться к началу
 Профиль Отправить личное сообщение  
 
   Похожие торренты   Автор   Торрент   Размер 
В этой теме нет новых непрочитанных сообщений. Снеговик / The Snowman [мультфильм, короткометражка, фэнтези, приключения, семейный, 1982] BDRip-AVC

salma3

3 | 1

1.45 ГБ

В этой теме нет новых непрочитанных сообщений. Первое свидание Райли (мультфильм, короткометражка, мелодрама, комедия, семейный, 2015) BDRip 720p | D

marya111

95 | 12

185.77 МБ

В этой теме нет новых непрочитанных сообщений. Кажется, я видел котика / I Tawt I Taw a Puddy Tat [мультфильм, короткометражка, мюзикл, комедия, 2011] BDRip 1080p, Dub

salma3

24 | 1

289.35 МБ

В этой теме нет новых непрочитанных сообщений. Чебурашка и крокодил Гена. Сборник мультфильмов [мультфильм, короткометражка, семейный, 1969-1983] BDRip 1080p

salma3

0 | 0

5.31 ГБ

В этой теме нет новых непрочитанных сообщений. Рождество Чарли Брауна / A Charlie Brown Christmas [мультфильм, комедия, семейный, короткометражка, 1965] BDRip 720p, Mvo

salma3

28 | 11

2.32 ГБ

В этой теме нет новых непрочитанных сообщений. Мастер - Лего Ниндзяго / The Master - A Lego Ninjago Short [мультфильм, короткометражка, боевик, 2016] BDRip 720p, Dub

salma3

33 | 10

195.48 МБ

В этой теме нет новых непрочитанных сообщений. Русалочка / The Little Mermaid [S01-03] [Мультфильм, фэнтези, семейный, 1992-1994] WEB-DLRip, Dub

salma3

0 | 0

9.32 ГБ


Начать новую тему Ответить на тему  [ 1 сообщение ] 




Для Мосгорсуда, Роскомнадзора и рекламодателей:: mosgorsud-torrent[собачка]yandex.ru
cron