Торрент файл
скачать торрент магнет ссылка Добавлен: 19 июн 2011, 11:43
Размер: 4.1 ГБ
Сидеров: 1
Личеров: 3
Автор

СообщениеДобавлено: 19 июн 2011, 11:43 

Не в сети
Супермодератор
Аватара пользователя
Дата регистрации:
14 июн 2010, 21:00
Возраст: 28
Спасибо: 1324 / 1
Сообщения: 5644
Откуда: НиНО
Артур и минипуты / Arthur et les Minimoys
Год выпуска: 2006
Страна: Франция
Жанр: Фэнтези, приключения, семейный, мультфильм
Продолжительность: 1:43;46
Перевод: профессиональный (полное дублирование)
Режиссер: Люк Бессон / Luc Besson
В главных ролях: Фредди Хаймор, Миа Фэрроу, Рон Кроуфорд, Пенни Бальфур, Даг Рэнд, Адам ЛеФевр.
Роли дублировали:
Русская версия: Нелли Уварова, Тимати, Андрей Григорьев-Аполлонов
Английская версия: Мадонна, Снуп Догг, Дэвид Боуи, Дэвид Суше
Французская версия: Милен Фармер
Немецкая версия: Билл Каулитц
Описание: На долю десятилетнего Артура выпало непростое испытание: дом его бабушки хотят отнять за долги, и никто не поможет ему справиться с этой напастью. Быть может, ключ к решению проблемы кроется в сокровищах его дедушки, которые спрятаны где-то в стране минипутов, сказочных крохотных существ.
В стране минипутов Артур знакомится с принцессой Селенией и ее братом Барахлюшем. Их ждет множество захватывающих приключений, опасностей и интриг на пути, который ведет их в запретный город Некрополис. Там детской компании предстоит пережить недетский ужас в лице Ужасного Урдалака…
Доп. информация: Моя раздача отличается от всех других наличием пяти языков (Русский, Английский, Французский, Немецкий, Украинский)
а так же наличием субтитров (Русских, Английский, Французский)
Основа для диска была взята от сюда http://rutracker.org/forum/viewtopic.php?t=515528
Изготовлено при помощи ConvertXToDVD.
Качество: BDRip> DVD5 (Custom)
Формат: DVD Video
Видео кодек: MPEG2
Аудио кодек: AC3
Видео: PAL 16:9 (720x576) VBR Auto Letterboxed, ~4 685 Kbps
Аудио: Russian (Dolby AC3, 6 ch, 448 Kbps), Английский (Dolby AC3, 6 ch, 448 Kbps), Французский(Dolby AC3, 6 ch, 448 Kbps), Немецкий(Dolby AC3, 2 ch, 192 Kbps), Украинский (Dolby AC3, 2 ch, 192 Kbps)
Субтитры: Русские, Английские, Французские
Скриншоты
Скриншоты Меню
Отчет MediaInfo
General
Complete name : C:\Documents and Settings\user\Мои документы\Downloads\Артур и минипуты\VIDEO_TS\VTS_01_2.VOB
Format : MPEG-PS
File size : 1 024 MiB
Duration : 21mn 26s
Overall bit rate : 6 678 Kbps
Video
ID : 224 (0xE0)
Format : MPEG Video
Format version : Version 2
Format profile : Main@Main
Format settings, BVOP : Yes
Format settings, Matrix : Default
Duration : 21mn 26s
Bit rate mode : Variable
Bit rate : 4 685 Kbps
Nominal bit rate : 8 096 Kbps
Width : 720 pixels
Height : 576 pixels
Display aspect ratio : 16:9
Frame rate : 25.000 fps
Standard : PAL
Resolution : 8 bits
Colorimetry : 4:2:0
Scan type : Progressive
Bits/(Pixel*Frame) : 0.452
Stream size : 718 MiB (70%)
Audio #1
ID : 128 (0x80)
Format : AC-3
Format/Info : Audio Coding 3
Duration : 21mn 26s
Bit rate mode : Constant
Bit rate : 448 Kbps
Channel(s) : 6 channels
Channel positions : Front: L C R, Surround: L R, LFE
Sampling rate : 48.0 KHz
Video delay : -108ms
Stream size : 68.7 MiB (7%)
Audio #2
ID : 129 (0x81)
Format : AC-3
Format/Info : Audio Coding 3
Duration : 21mn 26s
Bit rate mode : Constant
Bit rate : 448 Kbps
Channel(s) : 6 channels
Channel positions : Front: L C R, Surround: L R, LFE
Sampling rate : 48.0 KHz
Video delay : -140ms
Stream size : 68.7 MiB (7%)
Audio #3
ID : 130 (0x82)
Format : AC-3
Format/Info : Audio Coding 3
Duration : 21mn 26s
Bit rate mode : Constant
Bit rate : 448 Kbps
Channel(s) : 6 channels
Channel positions : Front: L C R, Surround: L R, LFE
Sampling rate : 48.0 KHz
Video delay : -140ms
Stream size : 68.7 MiB (7%)
Audio #4
ID : 131 (0x83)
Format : AC-3
Format/Info : Audio Coding 3
Duration : 21mn 26s
Bit rate mode : Constant
Bit rate : 192 Kbps
Channel(s) : 2 channels
Channel positions : L R
Sampling rate : 48.0 KHz
Video delay : -140ms
Stream size : 29.4 MiB (3%)
Audio #5
ID : 132 (0x84)
Format : AC-3
Format/Info : Audio Coding 3
Duration : 21mn 26s
Bit rate mode : Constant
Bit rate : 192 Kbps
Channel(s) : 2 channels
Channel positions : L R
Sampling rate : 48.0 KHz
Video delay : -140ms
Stream size : 29.4 MiB (3%)
Text #1
ID : 32 (0x20)
Format : RLE
Format/Info : Run-length encoding
Text #2
ID : 33 (0x21)
Format : RLE
Format/Info : Run-length encoding
Text #3
ID : 34 (0x22)
Format : RLE
Format/Info : Run-length encoding
Menu
Отчет DVDInfo
Title:
Size: 4.10 Gb ( 4 299 400 KBytes ) - DVD-5
Enabled regions: 1, 2, 3, 4, 5, 6, 8
VTS_01 :
Play Length: 01:43:46
Video: PAL 16:9 (720x576) VBR, Auto Letterboxed
Audio:
Russian (Dolby AC3, 6 ch)
Russian (Dolby AC3, 6 ch)
Russian (Dolby AC3, 6 ch)
Russian (Dolby AC3, 2 ch)
Russian (Dolby AC3, 2 ch)
Subtitles:
English
Francais
Russian
Menu Video:
PAL 16:9 (720x576) VBR
Auto Letterboxed
Menu English Language Unit :
Root Menu
Subpicture Menu
Audio Menu
Chapter (PTT) Menu




реклама партнёра


Вернуться к началу
 Профиль Отправить личное сообщение  
 
   Похожие торренты   Автор   Торрент   Размер 
В этой теме нет новых непрочитанных сообщений. Артур и минипуты: трилогия / Arthur et les Minimoys: Trilogy (2006, 2009, 2010) BDRip [1080p]

marya111

0 | 3

32.1 ГБ

В этой теме нет новых непрочитанных сообщений. Дом / Home (Тим Джонсон) [мультфильм, фантастика, фэнтези, комедия, приключения, семейный, 2015] DVD5, Dub+Sub [Лицензия]

Dracon

3 | 0

4.36 ГБ

В этой теме нет новых непрочитанных сообщений. В поисках Дори / Finding Dory (Мультфильм, комедия, приключения, семейный, 2016) DVD9 | Custom

marya111

29 | 18

6.39 ГБ

В этой теме нет новых непрочитанных сообщений. Приключения олененка Рудольфа / Rudolph, the Red-Nosed Reindeer [мультфильм, мюзикл, фэнтези, приключения, семейный, 1964] BDRip 1080p, Mvo

salma3

7 | 4

3.62 ГБ

В этой теме нет новых непрочитанных сообщений. Ну погоди! [01-25 из 25] (Вячеслав Котёночкин, Юрий Бутырин, Владимир Тарасов...) [1969-2006, мультфильм, комедия, семейный, приключения, DVD5]

Nickolas3435

696 | 58

4.36 ГБ

В этой теме нет новых непрочитанных сообщений. Холодное сердце / Frozen [Мультфильм, фэнтези, комедия, приключения, семейный, 2013] BDRip-AVC, Dub+Sub [Лицензия]

Dracon

6262 | 148

1.47 ГБ

В этой теме нет новых непрочитанных сообщений. Дом / Home (Тим Джонсон) [мультфильм, фантастика, фэнтези, комедия, приключения, семейный, 2015] BDRip 720p, Dub+Sub [лицензия]

Dracon

0 | 0

4.8 ГБ


Начать новую тему Ответить на тему  [ 1 сообщение ] 




Для Мосгорсуда, Роскомнадзора и рекламодателей:: mosgorsud-torrent[собачка]yandex.ru