Торрент файл
скачать торрент магнет ссылка Добавлен: 19 июн 2011, 11:42
Размер: 3.94 ГБ
Сидеров: 5
Личеров: 4
Автор

СообщениеДобавлено: 19 июн 2011, 11:42 

Не в сети
Супермодератор
Аватара пользователя
Дата регистрации:
14 июн 2010, 21:00
Возраст: 28
Спасибо: 1325 / 1
Сообщения: 5644
Откуда: НиНО
Царь сновидений / Joseph: King of Dreams- Страна: США
Жанр: мультфильм, мюзикл, драма, приключения, семейный
Продолжительность: 01:11:38
Год выпуска: 2000
Перевод: Профессиональный (двухголосый закадровый)
Русские субтитры: есть-Режиссёр: Роб ЛаДука, Роберт С. Рамирез / Rob LaDuca, Robert C. Ramirez- -Описание: Cоздатели полнометражного мультфильма-блокбастера "Принц Египта", получившего премию Американской Киноакадемии "Оскар", представляют Вам новую, замечательную, анимационную картину для всей семьи. Компания Стивена Спилберга "DreamWorks" неизменно радует нас восхитительными мультфильмами: "Муравей Антц", "Дорога на Эльдорадо" и лауреат "Оскара", непревзойденный "Шрек". И, надо заметить, что это чудесная картина - не исключение! Как всегда Вас ждет прекрасная музыка, великолепная анимация и потрясающая история! Рассказ пойдет о чудо-юноше, который наделен удивительным даром видеть будущее и объяснять сны...-Доп. материалы: Отсутствуют-Релиз группы: -Качество: DVD5 (Сжатый)
Формат: DVD-video
Видео: PAL 16:9 (720x576) VBR ~ 8323.69 kbps avg
Аудио 1: Русский Dolby AC3 48000Hz 6ch 448kbps
Аудио 2: Английский Dolby AC3 48000Hz 6ch 448kbps
Субтитры: Русские Английские
Info
Доп. информация
За основу ДВД взята раздача. Видео и звук не сжимались, удалены все дополнительные материалы хорватская звуковая дорожка, оставлены субтитры английские и русские.
Софт
DVDRemake Pro, Muxman
MediaInfo
Format : MPEG-PS
File size : 1 024 MiB
Duration : 18mn 13s
Overall bit rate : 7 854 Kbps
Video
ID : 224 (0xE0)
Format : MPEG Video
Format version : Version 2
Format profile : Main@Main
Format settings, BVOP : Yes
Format settings, Matrix : Default
Format settings, GOP : M=3, N=12
Duration : 18mn 13s
Bit rate mode : Variable
Bit rate : 7 000 Kbps
Width : 720 pixels
Height : 576 pixels
Display aspect ratio : 2.35:1
Frame rate : 25.000 fps
Standard : PAL
Color space : YUV
Chroma subsampling : 4:2:0
Bit depth : 8 bits
Scan type : Interlaced
Scan order : Top Field First
Compression mode : Lossy
Bits/(Pixel*Frame) : 0.675
Stream size : 887 MiB (87%)
Audio #1
ID : 128 (0x80)
Format : AC-3
Format/Info : Audio Coding 3
Mode extension : CM (complete main)
Duration : 18mn 13s
Bit rate mode : Constant
Bit rate : 448 Kbps
Channel(s) : 6 channels
Channel positions : Front: L C R, Side: L R, LFE
Sampling rate : 48.0 KHz
Bit depth : 16 bits
Compression mode : Lossy
Stream size : 58.4 MiB (6%)
Audio #2
ID : 129 (0x81)
Format : AC-3
Format/Info : Audio Coding 3
Mode extension : CM (complete main)
Duration : 18mn 13s
Bit rate mode : Constant
Bit rate : 448 Kbps
Channel(s) : 6 channels
Channel positions : Front: L C R, Side: L R, LFE
Sampling rate : 48.0 KHz
Bit depth : 16 bits
Compression mode : Lossy
Stream size : 58.4 MiB (6%)
Text #1
ID : 32 (0x20)
Format : RLE
Format/Info : Run-length encoding
Duration : 18mn 9s
Delay relative to video : 2s 0ms
Text #2
ID : 33 (0x21)
Format : RLE
Format/Info : Run-length encoding
DVDInfo
Код:
Title: Car_snovidenij_[rutracker.org]_by_yabrat
Size: 3.93 Gb ( 4 124 928,00 KBytes ) - DVD-5
Enabled regions: 1, 2, 3, 4, 5, 6, 7, 8
VTS_01 :
Play Length: 00:00:00
Video: PAL 16:9 (720x576) VBR, Auto Letterboxed
Audio:
English (Dolby AC3, 6 ch)
English (Dolby AC3, 6 ch)
VTS_02 :
Play Length: 01:11:38
Video: PAL 16:9 (720x576) VBR, Auto Letterboxed
Audio:
Russian (Dolby AC3, 6 ch)
English (Dolby AC3, 6 ch)
Subtitles:
Russian
English
VTS_03 :
Play Length: 00:00:00
Video: PAL 4:3 (720x576) VBR
Audio:
Russian (Dolby AC3, 3 ch)
English (Dolby AC3, 2 ch)
VTS_04 :
Play Length: 00:00:00
Video: PAL 16:9 (720x576) VBR, Auto Letterboxed
Audio:
Russian (Dolby AC3, 3 ch)
English (Dolby AC3, 2 ch)
VTS_05 :
Play Length: 00:00:00
Video: PAL 16:9 (720x576) VBR, Auto Letterboxed
Audio:
English (Dolby AC3, 2 ch)
English (Dolby AC3, 2 ch)
VTS_06 :
Play Length: 00:00:00
Video: PAL 16:9 (720x576) VBR, Auto Letterboxed
Audio:
English (Dolby AC3, 2 ch)
English (Dolby AC3, 2 ch)
VTS_07 :
Play Length: 00:00:00
Video: PAL 16:9 (720x576) VBR, Auto Letterboxed
Audio:
English (Dolby AC3, 2 ch)
English (Dolby AC3, 2 ch)
Скриншоты меню
Скриншоты





реклама партнёра


Вернуться к началу
 Профиль Отправить личное сообщение  
 
   Похожие торренты   Автор   Торрент   Размер 
В этой теме нет новых непрочитанных сообщений. Анна и король / Anna and the King [Мультфильм, приключения, семейный, история, 2000] DVDRip, dub

salma3

21 | 4

655.29 МБ

В этой теме нет новых непрочитанных сообщений. Подарок с характером [семейный, приключения, комедия, 2014] DVD5 [Сжатый]

Dracon

73 | 8

4.11 ГБ

В этой теме нет новых непрочитанных сообщений. Король Лев. Трилогия / The Lion King. Trilogy [мультфильм, мюзикл, драма, 1994-2004] BDRip, Dub

salma3

389 | 32

4.35 ГБ

В этой теме нет новых непрочитанных сообщений. Спасти Санту / Saving Santa [мультфильм, мюзикл, комедия, семейный, 2013] DVD5, Dub [Лицензия]

Dracon

6 | 4

4.13 ГБ

В этой теме нет новых непрочитанных сообщений. Оз: Возвращение в Изумрудный Город / Legends of Oz: Dorothy's Return [мультфильм, мюзикл, семейный, 2013] DVD5, Dub+Sub [лицензия]

Dracon

82 | 30

4.03 ГБ

В этой теме нет новых непрочитанных сообщений. Царь скорпионов 4: Утерянный трон / The Scorpion King: The Lost Throne (Майк Эллиот) [Приключения, боевик, 2015] Blu-Ray [BaibaKo]

Dracon

1 | 4

39.31 ГБ

В этой теме нет новых непрочитанных сообщений. Приключения олененка Рудольфа / Rudolph, the Red-Nosed Reindeer [мультфильм, мюзикл, фэнтези, приключения, семейный, 1964] BDRip 1080p, Mvo

salma3

7 | 4

3.62 ГБ


Начать новую тему Ответить на тему  [ 1 сообщение ] 




Для Мосгорсуда, Роскомнадзора и рекламодателей:: mosgorsud-torrent[собачка]yandex.ru