Торрент файл
скачать торрент магнет ссылка Добавлен: 19 июн 2011, 11:32
Размер: 3.04 ГБ
Сидеров: 2
Личеров: 3
Автор

СообщениеДобавлено: 19 июн 2011, 11:32 

Не в сети
Супермодератор
Аватара пользователя
Дата регистрации:
14 июн 2010, 21:00
Возраст: 28
Спасибо: 1324 / 1
Сообщения: 5644
Откуда: НиНО
-Панчинелло и самый лучший подарок / Зеленый нос
http://rutracker.org/forum/viewtopic.php?t=3577297-Ты мой + Ты особенный / You Are Mine + You Are Special-Страна: США
Жанр: мультфильм, семейный
Продолжительность: 00:52:35
Год выпуска: 2001/2002
Перевод: Профессиональный (дублированный)
Русские субтитры: нет-Режиссёр: Mark Swanson (Марк Свансон)
Роли озвучивали: Chana Keefer (Lucia), Mark Keefer (Punchinello) и др.-Ты мой
Наконец Панчинелло добился всеобщего признания, и жители Веммиксвиля считают его хорошим веммиксом! Панчинелло приятно это слышать, и он пытается всем угождать, забывая о том, чему учил его Мастер. У деревянных человечков новое увлечение - они собирают коробки и шары, и Панчинелло старается не отставать от них. От этого занятия он испытывает удовольствие, но не долго. Измотанный новым увлечением и изрядно уставший, он возвращается к Мастеру и снова слышит самые важные слова: "Ты особенный не потому, что у тебя что-то есть, а потому что ты - Мой".-Ты особенный
В этом сказочном городе живут маленькие деревянные человечки Вемики. Каждый день они занимаются одним и тем же: цепляют друг на друга наклейки. Умные и талантливые Вемики получают золотые звезды, а нескладным и менее одаренным достаются только серые пятна. Панчинелло весь покрыт серыми пятнами. Он старается из всех сил, но у него не получается заработать хотя бы одну золотую звездочку.
Однажды он встречает удивительную жительницу Вимиксвиля, к которой не прилипают ни звезды, ни пятна.
И, любой ценой, Панчинелло захотел узнать секрет Люсии.
После этого начинается, что-то невероятное - то, что встряхнет Веммиксвиль до самого основания.
По мотивам детского бестселлера. Автор Макс Лукадо.-Семпл: http://multi-up.com/492433-Качество: DVD5
Формат: DVD-video
Видео: PAL 4:3 (720x576) VBR
Аудио 1: Русский дубляж - 192 Кбит/сек, 48.0 КГц, 2 канала, АС-3
Аудио 2: Украинский дубляж - 192 Кбит/сек, 48.0 КГц, 2 канала, АС-3
Субтитры: отсутствуют-
DVDInfo
Код:
Title: panch1
Size: 3.04 Gb ( 3 182 668,00 KBytes ) - DVD-5
Enabled regions: 1, 2, 3, 4, 5, 6, 7, 8
VTS_01 :
Play Length: 00:00:14
Video: PAL 4:3 (720x576) VBR
Audio:
English (Dolby AC3, 2 ch)
VTS_02 :
Play Length: 00:26:19
Video: PAL 4:3 (720x576) VBR
Audio:
English (Dolby AC3, 2 ch)
English (Dolby AC3, 2 ch)
VTS_03 :
Play Length: 00:26:51
Video: PAL 4:3 (720x576) VBR
Audio:
English (Dolby AC3, 2 ch)
English (Dolby AC3, 2 ch)
* Menus Information *
VIDEO_TS Menu
Video:
PAL 4:3 (720x576) VBR
English Language Unit :
Title Menu
VTS_01 Menu
Video:
PAL 4:3 (720x576) VBR
Audio:
Not specified (Dolby AC3, 2 ch)
English Language Unit :
Root Menu
VTS_02 Menu
Video:
PAL 4:3 (720x576) VBR
English Language Unit :
Root Menu
VTS_03 Menu
Video:
PAL 4:3 (720x576) VBR
English Language Unit :
Root Menu
-
Скриншоты меню
Скриншоты

-
Отчет MediaInfo по файлу VTS_01_1.VOB
Код:
Общее
Полное имя: D:\panch\panch1\VIDEO_TS\VTS_01_1.VOB
Формат: MPEG-PS
Размер файла: 13,2 Мбайт
Продолжительность: 13 с.
Общий поток: 8042 Кбит/сек
Видео
Идентификатор: 224 (0xE0)
Формат: MPEG Video
Версия формата: Version 2
Профиль формата: Main@Main
Параметр BVOP формата: Да
Параметр матрицы формата: По умолчанию
Параметры GOP формата: M=3, N=12
Продолжительность: 13 с.
Вид битрейта: Постоянный
Битрейт: 7754 Кбит/сек
Ширина: 720 пикс.
Высота: 576 пикс.
Соотношение сторон: 4:3
Частота кадров: 25,000 кадр/сек
Стандарт вещания: PAL
Цветовое пространство: YUV
Подвыборка цветности: 4:2:0
Битовая глубина: 8 бит
Тип развёртки: Чересстрочная
Порядок развёртки: Нижнее поле первое
Метод сжатия: С потерями
Бит/(Пиксели*Кадры): 0.748
Размер потока: 12,5 Мбайт (95%)
Аудио
Идентификатор: 128 (0x80)
Формат: AC-3
Формат/Информация: Audio Coding 3
Расширение режима: CM (complete main)
Продолжительность: 13 с.
Вид битрейта: Постоянный
Битрейт: 192 Кбит/сек
Канал(ы): 2 канала(ов)
Расположение каналов: Front: L R
Частота: 48,0 КГц
Битовая глубина: 16 бит
Метод сжатия: С потерями
Задержка видео: -80 мс.
Размер потока: 322 Кбайт (2%)
Меню
-




реклама партнёра


Вернуться к началу
 Профиль Отправить личное сообщение  
 
   Похожие торренты   Автор   Торрент   Размер 
В этой теме нет новых непрочитанных сообщений. Особенный (Кирилл Злотник) [2006, мультфильм, приключения, DVDRip | Лицензия]

Nickolas3435

19 | 5

1.37 ГБ

В этой теме нет новых непрочитанных сообщений. Барашек Шон / Shaun the Sheep Movie (Марк Бертон) [Приключения, Семейный, Комедия, Мультфильм, 2015] WEB-DLRip 1080p, Dub [iTunes]

Dracon

27 | 5

3.21 ГБ

В этой теме нет новых непрочитанных сообщений. Барашек Шон / Shaun the Sheep Movie (Марк Бертон) [Приключения, Семейный, Комедия, Мультфильм, 2015] WEB-DLRip 720p, Dub [iTunes]

Dracon

1 | 1

2.54 ГБ

В этой теме нет новых непрочитанных сообщений. Твои, мои и наши / Yours, Mine and Ours [комедия, семейный, 1968] BDRip 720p, Dvo

salma3

32 | 2

4.76 ГБ

В этой теме нет новых непрочитанных сообщений. Барашек Шон / Shaun the Sheep Movie (Марк Бертон) [Приключения, Семейный, Комедия, Мультфильм, 2015] HDRip, [Лицензия / русский видеоряд]

Dracon

236 | 1

1.37 ГБ

В этой теме нет новых непрочитанных сообщений. Твои, мои и наши / Yours, Mine & Ours [комедия, мелодрама, семейный, 2005] WEBDL 720p, Dvo

salma3

30 | 2

3.13 ГБ

В этой теме нет новых непрочитанных сообщений. Барашек Шон / Shaun the Sheep Movie (Марк Бертон) [Приключения, Семейный, Комедия, Мультфильм, 2015] BDRip 720p [Лицензия / русский видеоряд]

Dracon

39 | 1

3.86 ГБ


Начать новую тему Ответить на тему  [ 1 сообщение ] 




Для Мосгорсуда, Роскомнадзора и рекламодателей:: mosgorsud-torrent[собачка]yandex.ru