Торрент файл
скачать торрент магнет ссылка Добавлен: 18 июн 2011, 22:33
Размер: 4.29 ГБ
Сидеров: 1
Личеров: 3
Автор

СообщениеДобавлено: 18 июн 2011, 22:33 

Не в сети
Супермодератор
Аватара пользователя
Дата регистрации:
14 июн 2010, 21:00
Возраст: 29
Спасибо: 1337 / 1
Сообщения: 5611
Откуда: НиНО
Аладдин: приключение всех времен \ Aladdin and the Adventure of All Time
Страна: США, Филиппины
Жанр: фэнтези, приключения, семейный, мультфильм
Продолжительность: 01:21:12
Год выпуска: 2000
Перевод: Профессиональный (многоголосый закадровый)
Русские субтитры: нет
Режиссёр: Сирио Сантьяго / Cirio H. Santiago
Описание: Аладдин и его новая подруга Пейдж встретились для того, чтобы посетить английских королей и египетских королев, столкнуться лицом к лицу с тираннозавром Рексом и попутешествовать с пиратом Черная Борода в поисках похищенной волшебной лампы. Злая императрица Шехерезада украла лампу и с ее помощью собирается переписать историю. Аладдин и Пейдж должны проверить свое мужество и дружбу, чтобы одолеть злодейку и счастливо вернуться домой.
Доп. материалы: отсутствуют
Качество: DVD5
Формат: DVD-video
Видео: NTSC 4:3 (720x480) VBR, 6 244 Kbps
Аудио 1: Русский (Dolby AC3, 2 ch) 192kbps
Аудио 2: Английский (Dolby AC3, 2 ch) 192kbps
Субтитры: отсутствуют
DVDInfo
Код:
Size: 4.29 Gb ( 4 500 132 KBytes ) - DVD-5
Enabled regions: 1, 2, 3, 4, 5, 6
VTS_01 :
Play Length: 01:21:12
Video: NTSC 4:3 (720x480) VBR
Audio:
Russian (Dolby AC3, 2 ch)
English (Dolby AC3, 2 ch)
VTS_02 :
Play Length: 00:01:34
Video: NTSC 4:3 (720x480) VBR
Audio:
English (Dolby AC3, 2 ch)
VTS_03 :
Play Length: 00:01:19
Video: NTSC 4:3 (720x480) VBR
Audio:
English (Dolby AC3, 2 ch)
MediaInfo
Код:
Complete name: D:\Торрент\Аладин-Приключение всех времен\VIDEO_TS\VIDEO_TS.VOB
Format: MPEG-PS
File size: 114 КиБ
Duration: 400 мс.
Overall bit rate: 2335 Кбит/сек
Видео
ID: 224 (0xE0)
Format: MPEG Video
Format version: Version 2
Format profile: Main@Main
Format settings, BVOP: Да
Format settings, Matrix: По умолчанию
Duration: 400 мс.
Bit rate mode: Постоянный
Bit rate: 2000 Кбит/сек
Width: 720 пикс.
Height: 480 пикс.
Display aspect ratio: 4:3
Frame rate: 29,970 кадр/сек
Standard: NTSC
Color space: YUV
Chroma subsampling: 4:2:0
Bit depth: 8 бит
Scan type: Чересстрочная
Scan order: Верхнее поле первое
Bits/(Pixel*Frame): 0.193
Stream size: 97,7 КиБ (86%)
Текст
ID: 32 (0x20)
Format: RLE
Format/Info: Run-length encoding
Video delay: -66 мс.
Complete name: D:\Торрент\Аладин-Приключение всех времен\VIDEO_TS\VTS_01_0.VOB
Format: MPEG-PS
File size: 87.9 MiB
Duration: 30s 48ms
Overall bit rate: 24.5 Mbps
Video
ID: 224 (0xE0)
Format: MPEG Video
Format version: Version 2
Format profile: Main@Main
Format settings, BVOP: Yes
Format settings, Matrix: Default
Duration: 30s 30ms
Bit rate mode: Variable
Bit rate: 23.9 Mbps
Width: 720 pixels
Height: 480 pixels
Display aspect ratio: 4:3
Frame rate: 29.970 fps
Standard: NTSC
Color space: YUV
Chroma subsampling: 4:2:0
Bit depth: 8 bits
Bits/(Pixel*Frame): 2.303
Stream size: 85.4 MiB (97%)
Audio
ID: 128 (0x80)
Format: AC-3
Format/Info: Audio Coding 3
Mode extension: CM (complete main)
Duration: 30s 48ms
Bit rate mode: Constant
Bit rate: 192 Kbps
Channel(s): 2 channels
Channel positions: Front: L R
Sampling rate: 48.0 KHz
Bit depth: 16 bits
Stream size: 704 KiB (1%)
Text
ID: 32 (0x20)
Format: RLE
Format/Info: Run-length encoding
Complete name: D:\Торрент\Аладин-Приключение всех времен\VIDEO_TS\VTS_01_1.VOB
Format: MPEG-PS
File size: 1 024 MiB
Duration: 21mn 10s
Overall bit rate: 6 762 Kbps
Video
ID: 224 (0xE0)
Format: MPEG Video
Format version: Version 2
Format profile: Main@Main
Format settings, BVOP: Yes
Format settings, Matrix: Default
Format settings, GOP: M=3, N=12
Duration: 21mn 10s
Bit rate mode: Variable
Bit rate: 6 244 Kbps
Nominal bit rate: 9 500 Kbps
Width: 720 pixels
Height: 480 pixels
Display aspect ratio: 4:3
Frame rate: 29.970 fps
Standard: NTSC
Color space: YUV
Chroma subsampling: 4:2:0
Bit depth: 8 bits
Scan type: Interlaced
Scan order: Top Field First
Bits/(Pixel*Frame): 0.603
Stream size: 945 MiB (92%)
Audio #1
ID: 128 (0x80)
Format: AC-3
Format/Info: Audio Coding 3
Mode extension: CM (complete main)
Duration: 21mn 9s
Bit rate mode: Constant
Bit rate: 192 Kbps
Channel(s): 2 channels
Channel positions: Front: L R
Sampling rate: 48.0 KHz
Bit depth: 16 bits
Stream size: 29.1 MiB (3%)
Audio #2
ID: 129 (0x81)
Format: AC-3
Format/Info: Audio Coding 3
Mode extension: CM (complete main)
Duration: 21mn 9s
Bit rate mode: Constant
Bit rate: 192 Kbps
Channel(s): 2 channels
Channel positions: Front: L R
Sampling rate: 48.0 KHz
Bit depth: 16 bits
Stream size: 29.1 MiB (3%)
Complete name: D:\Торрент\Аладин-Приключение всех времен\VIDEO_TS\VTS_01_2.VOB
Format: MPEG-PS
File size: 1 024 MiB
Duration: 17mn 51s
Overall bit rate: 8 017 Kbps
Video
ID: 224 (0xE0)
Format: MPEG Video
Format version: Version 2
Format profile: Main@Main
Format settings, BVOP: Yes
Format settings, Matrix: Default
Format settings, GOP: M=3, N=12
Duration: 17mn 51s
Bit rate mode: Variable
Bit rate: 7 473 Kbps
Nominal bit rate: 9 500 Kbps
Width: 720 pixels
Height: 480 pixels
Display aspect ratio: 4:3
Frame rate: 29.970 fps
Standard: NTSC
Color space: YUV
Chroma subsampling: 4:2:0
Bit depth: 8 bits
Scan type: Interlaced
Scan order: Top Field First
Bits/(Pixel*Frame): 0.722
Stream size: 954 MiB (93%)
Audio #1
ID: 128 (0x80)
Format: AC-3
Format/Info: Audio Coding 3
Mode extension: CM (complete main)
Duration: 17mn 51s
Bit rate mode: Constant
Bit rate: 192 Kbps
Channel(s): 2 channels
Channel positions: Front: L R
Sampling rate: 48.0 KHz
Bit depth: 16 bits
Video delay: -346ms
Stream size: 24.5 MiB (2%)
Audio #2
ID: 129 (0x81)
Format: AC-3
Format/Info: Audio Coding 3
Mode extension: CM (complete main)
Duration: 17mn 51s
Bit rate mode: Constant
Bit rate: 192 Kbps
Channel(s): 2 channels
Channel positions: Front: L R
Sampling rate: 48.0 KHz
Bit depth: 16 bits
Video delay: -346ms
Stream size: 24.5 MiB (2%)
Complete name: D:\Торрент\Аладин-Приключение всех времен\VIDEO_TS\VTS_01_3.VOB
Format: MPEG-PS
File size: 1 024 MiB
Duration: 21mn 4s
Overall bit rate: 6 795 Kbps
Video
ID: 224 (0xE0)
Format: MPEG Video
Format version: Version 2
Format profile: Main@Main
Format settings, BVOP: Yes
Format settings, Matrix: Default
Format settings, GOP: M=3, N=12
Duration: 21mn 3s
Bit rate mode: Variable
Bit rate: 6 275 Kbps
Nominal bit rate: 9 500 Kbps
Width: 720 pixels
Height: 480 pixels
Display aspect ratio: 4:3
Frame rate: 29.970 fps
Standard: NTSC
Color space: YUV
Chroma subsampling: 4:2:0
Bit depth: 8 bits
Scan type: Interlaced
Scan order: Top Field First
Bits/(Pixel*Frame): 0.606
Stream size: 945 MiB (92%)
Audio #1
ID: 128 (0x80)
Format: AC-3
Format/Info: Audio Coding 3
Mode extension: CM (complete main)
Duration: 21mn 4s
Bit rate mode: Constant
Bit rate: 192 Kbps
Channel(s): 2 channels
Channel positions: Front: L R
Sampling rate: 48.0 KHz
Bit depth: 16 bits
Video delay: -389ms
Stream size: 28.9 MiB (3%)
Audio #2
ID: 129 (0x81)
Format: AC-3
Format/Info: Audio Coding 3
Mode extension: CM (complete main)
Duration: 21mn 4s
Bit rate mode: Constant
Bit rate: 192 Kbps
Channel(s): 2 channels
Channel positions: Front: L R
Sampling rate: 48.0 KHz
Bit depth: 16 bits
Video delay: -389ms
Stream size: 28.9 MiB (3%)
Complete name: D:\Торрент\Аладин-Приключение всех времен\VIDEO_TS\VTS_01_4.VOB
Format: MPEG-PS
File size: 1 024 MiB
Duration: 19mn 46s
Overall bit rate: 7 240 Kbps
Video
ID: 224 (0xE0)
Format: MPEG Video
Format version: Version 2
Format profile: Main@Main
Format settings, BVOP: Yes
Format settings, Matrix: Default
Format settings, GOP: M=3, N=12
Duration: 19mn 46s
Bit rate mode: Variable
Bit rate: 6 712 Kbps
Nominal bit rate: 9 500 Kbps
Width: 720 pixels
Height: 480 pixels
Display aspect ratio: 4:3
Frame rate: 29.970 fps
Standard: NTSC
Color space: YUV
Chroma subsampling: 4:2:0
Bit depth: 8 bits
Scan type: Interlaced
Scan order: Top Field First
Bits/(Pixel*Frame): 0.648
Stream size: 949 MiB (93%)
Audio #1
ID: 128 (0x80)
Format: AC-3
Format/Info: Audio Coding 3
Mode extension: CM (complete main)
Duration: 19mn 46s
Bit rate mode: Constant
Bit rate: 192 Kbps
Channel(s): 2 channels
Channel positions: Front: L R
Sampling rate: 48.0 KHz
Bit depth: 16 bits
Video delay: -320ms
Stream size: 27.2 MiB (3%)
Audio #2
ID: 129 (0x81)
Format: AC-3
Format/Info: Audio Coding 3
Mode extension: CM (complete main)
Duration: 19mn 46s
Bit rate mode: Constant
Bit rate: 192 Kbps
Channel(s): 2 channels
Channel positions: Front: L R
Sampling rate: 48.0 KHz
Bit depth: 16 bits
Video delay: -320ms
Stream size: 27.2 MiB (3%)
Complete name: D:\Торрент\Аладин-Приключение всех времен\VIDEO_TS\VTS_01_5.VOB
Format: MPEG-PS
File size: 69.9 MiB
Duration: 1mn 25s
Overall bit rate: 6 839 Kbps
Video
ID: 224 (0xE0)
Format: MPEG Video
Format version: Version 2
Format profile: Main@Main
Format settings, BVOP: Yes
Format settings, Matrix: Default
Format settings, GOP: M=3, N=12
Duration: 1mn 25s
Bit rate mode: Variable
Bit rate: 6 319 Kbps
Nominal bit rate: 9 500 Kbps
Width: 720 pixels
Height: 480 pixels
Display aspect ratio: 4:3
Frame rate: 29.970 fps
Standard: NTSC
Color space: YUV
Chroma subsampling: 4:2:0
Bit depth: 8 bits
Scan type: Interlaced
Scan order: Top Field First
Bits/(Pixel*Frame): 0.610
Stream size: 64.2 MiB (92%)
Audio #1
ID: 128 (0x80)
Format: AC-3
Format/Info: Audio Coding 3
Mode extension: CM (complete main)
Duration: 1mn 25s
Bit rate mode: Constant
Bit rate: 192 Kbps
Channel(s): 2 channels
Channel positions: Front: L R
Sampling rate: 48.0 KHz
Bit depth: 16 bits
Video delay: -465ms
Stream size: 1.96 MiB (3%)
Audio #2
ID: 129 (0x81)
Format: AC-3
Format/Info: Audio Coding 3
Mode extension: CM (complete main)
Duration: 1mn 25s
Bit rate mode: Constant
Bit rate: 192 Kbps
Channel(s): 2 channels
Channel positions: Front: L R
Sampling rate: 48.0 KHz
Bit depth: 16 bits
Video delay: -465ms
Stream size: 1.96 MiB (3%)
Complete name: D:\Торрент\Аладин-Приключение всех времен\VIDEO_TS\VTS_02_0.VOB
Format: MPEG-PS
File size: 114 KiB
Duration: 400ms
Overall bit rate: 2 335 Kbps
Video
ID: 224 (0xE0)
Format: MPEG Video
Format version: Version 2
Format profile: Main@Main
Format settings, BVOP: Yes
Format settings, Matrix: Default
Duration: 400ms
Bit rate mode: Constant
Bit rate: 2 000 Kbps
Width: 720 pixels
Height: 480 pixels
Display aspect ratio: 4:3
Frame rate: 29.970 fps
Standard: NTSC
Color space: YUV
Chroma subsampling: 4:2:0
Bit depth: 8 bits
Scan type: Interlaced
Scan order: Top Field First
Bits/(Pixel*Frame): 0.193
Stream size: 97.7 KiB (86%)
Text
ID: 32 (0x20)
Format: RLE
Format/Info: Run-length encoding
Video delay: -66ms
Complete name: D:\Торрент\Аладин-Приключение всех времен\VIDEO_TS\VTS_02_1.VOB
Format: MPEG-PS
File size: 81.8 MiB
Duration: 1mn 34s
Overall bit rate: 7 264 Kbps
Video
ID: 224 (0xE0)
Format: MPEG Video
Format version: Version 2
Format profile: Main@Main
Format settings, BVOP: Yes
Format settings, Matrix: Default
Duration: 1mn 34s
Bit rate mode: Variable
Bit rate: 6 927 Kbps
Width: 720 pixels
Height: 480 pixels
Display aspect ratio: 4:3
Frame rate: 29.970 fps
Standard: NTSC
Color space: YUV
Chroma subsampling: 4:2:0
Bit depth: 8 bits
Scan type: Interlaced
Scan order: Top Field First
Bits/(Pixel*Frame): 0.669
Stream size: 78.0 MiB (95%)
Audio
ID: 128 (0x80)
Format: AC-3
Format/Info: Audio Coding 3
Mode extension: CM (complete main)
Duration: 1mn 34s
Bit rate mode: Constant
Bit rate: 192 Kbps
Channel(s): 2 channels
Channel positions: Front: L R
Sampling rate: 48.0 KHz
Bit depth: 16 bits
Video delay: -66ms
Stream size: 2.16 MiB (3%)
Complete name: D:\Торрент\Аладин-Приключение всех времен\VIDEO_TS\VTS_03_0.VOB
Format: MPEG-PS
File size: 114 KiB
Duration: 400ms
Overall bit rate: 2 335 Kbps
Video
ID: 224 (0xE0)
Format: MPEG Video
Format version: Version 2
Format profile: Main@Main
Format settings, BVOP: Yes
Format settings, Matrix: Default
Duration: 400ms
Bit rate mode: Constant
Bit rate: 2 000 Kbps
Width: 720 pixels
Height: 480 pixels
Display aspect ratio: 4:3
Frame rate: 29.970 fps
Standard: NTSC
Color space: YUV
Chroma subsampling: 4:2:0
Bit depth: 8 bits
Scan type: Interlaced
Scan order: Top Field First
Bits/(Pixel*Frame): 0.193
Stream size: 97.7 KiB (86%)
Text
ID: 32 (0x20)
Format: RLE
Format/Info: Run-length encoding
Video delay: -66ms
Complete name: D:\Торрент\Аладин-Приключение всех времен\VIDEO_TS\VTS_03_1.VOB
Format: MPEG-PS
File size: 59.1 MiB
Duration: 1mn 19s
Overall bit rate: 6 269 Kbps
Video
ID: 224 (0xE0)
Format: MPEG Video
Format version: Version 2
Format profile: Main@Main
Format settings, BVOP: Yes
Format settings, Matrix: Default
Format settings, GOP: M=3, N=12
Duration: 1mn 19s
Bit rate mode: Variable
Bit rate: 5 952 Kbps
Nominal bit rate: 8 500 Kbps
Width: 720 pixels
Height: 480 pixels
Display aspect ratio: 4:3
Frame rate: 29.970 fps
Standard: NTSC
Color space: YUV
Chroma subsampling: 4:2:0
Bit depth: 8 bits
Scan type: Interlaced
Scan order: Top Field First
Bits/(Pixel*Frame): 0.575
Stream size: 56.1 MiB (95%)
Audio
ID: 128 (0x80)
Format: AC-3
Format/Info: Audio Coding 3
Mode extension: CM (complete main)
Duration: 1mn 19s
Bit rate mode: Constant
Bit rate: 192 Kbps
Channel(s): 2 channels
Channel positions: Front: L R
Sampling rate: 48.0 KHz
Bit depth: 16 bits
Stream size: 1.81 MiB (3%)
Скриншоты меню
Скриншоты





реклама партнёра


Вернуться к началу
 Профиль Отправить личное сообщение  
 
   Похожие торренты   Автор   Торрент   Размер 
В этой теме нет новых непрочитанных сообщений. Аладдин и король разбойников / Aladdin and the King of Thieves [мультфильм, мюзикл, фэнтези, 1996] BDRemux 1080p, Dub

salma3

0 | 20

18.43 ГБ

В этой теме нет новых непрочитанных сообщений. Аладдин и король разбойников / Aladdin and the King of Thieves [мультфильм, комедия, приключения, 1996] BDRip 720p, Dub

salma3

0 | 164

2.58 ГБ

В этой теме нет новых непрочитанных сообщений. Большое приключение Пи - Ви / Pee-wee's Big Adventure [фэнтези, комедия, приключения, семейный, 1985] BDRip 1080p, Dub+Sub

salma3

31 | 0

9.43 ГБ

В этой теме нет новых непрочитанных сообщений. Аладдин / Aladdin [мультфильм, мюзикл, 1992] BDRip, Dub [КПК]

salma3

174 | 6

311.47 МБ

В этой теме нет новых непрочитанных сообщений. Аладдин и король разбойников / Aladdin and the king of thieves [Полнометражный мультфильм, комедия, 1995] DVDRip, Dub [КПК]

salma3

52 | 4

269.81 МБ

В этой теме нет новых непрочитанных сообщений. Удивительное приключение панды / The Amazing Panda Adventure [драма, приключения, семейный, 1995] WEB-DLRip, Dub

salma3

66 | 8

1.09 ГБ

В этой теме нет новых непрочитанных сообщений. Освободите Вилли 2: Новое приключение / Free Willy 2: The Adventure Home [драма, приключения, семейный, 1995] WEB-DL 720p, Mvo+Sub

salma3

13 | 33

3.24 ГБ


Начать новую тему Ответить на тему  [ 1 сообщение ] 




Для Мосгорсуда, Роскомнадзора и рекламодателей:: mosgorsud-torrent[собачка]yandex.ru