Торрент файл
скачать торрент магнет ссылка Добавлен: 18 июн 2011, 22:29
Размер: 3.49 ГБ
Сидеров: 1
Личеров: 2
Автор

СообщениеДобавлено: 18 июн 2011, 22:29 

Не в сети
Супермодератор
Аватара пользователя
Дата регистрации:
14 июн 2010, 21:00
Возраст: 28
Спасибо: 1325 / 1
Сообщения: 5644
Откуда: НиНО
Восемь безумных ночей / Eight Crazy Nights«The Ultimate Battle Between Naughty And Nice.»- Страна: США
Жанр: мультфильм, мюзикл, драма, комедия
Продолжительность: 01:13:08
Год выпуска: 2002
Перевод: Профессиональный (многоголосый закадровый)
Русские субтитры: есть-Режиссёр: Сет Кирсли / Seth Kearsley-Роли озвучивали: Адам Сэндлер, Джеки Сэндлер, Остин Стаут, Кевин Нилон, Роб Шнайдер, Норм Кросби, Джон Ловиц, Тайра Бэнкс, Блейк Кларк, Питер Данте- -Описание: Дэйви Стоун, 30-летний парень, у которого начинаются проблемы с законом после того, как его и без того дикие выходки заходят слишком далеко. Пожалев парня, судья дает ему последний шанс — или он участвует как дополнительный рефери в играх молодежной баскетбольной лиги, или садится за решетку.
Дэйви думает, что он очень легко отделался от тюрьмы, пока не встречает Вайти Дюваля, эксцентричного главного рефери. Полное несоответствие между добросердечным, полным оптимизма Вайти и Дэйви с его проделками, не приносящими окружающим ничего кроме проблем, не мешает тем не менее им стать друзьями.-Релиз группы: -Качество: DVD5 (Сжатый)
Формат: DVD-video
Видео: PAL 16:9 (720x576) VBR, 6824.72 kbps avg
Аудио: Dolby AC3 48000Hz 6ch 448kbps
Аудио 2: Dolby AC3 48000Hz 6ch 448kbps
Субтитры: Русские Английские
Info
Доп. информация
За основу ДВД взята раздача. Видео и звук не сжимались, удалены все дополнительные материалы итальянская звуковая дорожка, оставлены субтитры английские и русские.
Софт
DVDRemake Pro, Muxman
MediaInfo
Format : MPEG-PS
File size : 1 024 MiB
Duration : 21mn 15s
Overall bit rate : 6 736 Kbps
Video
ID : 224 (0xE0)
Format : MPEG Video
Format version : Version 2
Format profile : Main@Main
Format settings, BVOP : Yes
Format settings, Matrix : Default
Duration : 21mn 15s
Bit rate mode : Variable
Bit rate : 5 706 Kbps
Nominal bit rate : 9 800 Kbps
Width : 720 pixels
Height : 576 pixels
Display aspect ratio : 16:9
Frame rate : 25.000 fps
Standard : PAL
Color space : YUV
Chroma subsampling : 4:2:0
Bit depth : 8 bits
Scan type : Interlaced
Scan order : Top Field First
Compression mode : Lossy
Bits/(Pixel*Frame) : 0.550
Stream size : 867 MiB (85%)
Audio #1
ID : 128 (0x80)
Format : AC-3
Format/Info : Audio Coding 3
Mode extension : CM (complete main)
Duration : 21mn 15s
Bit rate mode : Constant
Bit rate : 448 Kbps
Channel(s) : 6 channels
Channel positions : Front: L C R, Side: L R, LFE
Sampling rate : 48.0 KHz
Bit depth : 16 bits
Compression mode : Lossy
Stream size : 68.1 MiB (7%)
Audio #2
ID : 130 (0x82)
Format : AC-3
Format/Info : Audio Coding 3
Mode extension : CM (complete main)
Duration : 21mn 15s
Bit rate mode : Constant
Bit rate : 448 Kbps
Channel(s) : 6 channels
Channel positions : Front: L C R, Side: L R, LFE
Sampling rate : 48.0 KHz
Bit depth : 16 bits
Compression mode : Lossy
Stream size : 68.1 MiB (7%)
Text #1
ID : 32 (0x20)
Format : RLE
Format/Info : Run-length encoding
Text #2
ID : 47 (0x2F)
Format : RLE
Format/Info : Run-length encoding
DVDInfo
Код:
Title: Новая папка (6)
Size: 3.49 Gb ( 3 657 024,00 KBytes ) - DVD-5
Enabled regions: 1, 2, 3, 4, 5, 6, 7, 8
VTS_01 :
Play Length: 01:13:08
Video: PAL 16:9 (720x576) VBR, Auto Letterboxed
Audio:
English (Dolby AC3, 6 ch)
Russian (Dolby AC3, 6 ch)
Subtitles:
English
Russian
VTS_02 :
Play Length: 00:00:00
Video: PAL 4:3 (720x576) VBR
Audio:
English (Dolby AC3, 2 ch)
Subtitles:
English
Italiano
Nederlands
Arabic
Hrvatski
Czech(Ceske)
Dansk
Suomi
Greek
Hebrew
Hindi
Magyar
Islenska
Norsk
Polish
Russian
VTS_03 :
Play Length: 00:00:00
Video: PAL 4:3 (720x576) VBR
Audio:
English (Dolby AC3, 6 ch)
English (Dolby AC3, 6 ch)
English (Dolby AC3, 6 ch)
English (Dolby AC3, 6 ch)
English (Dolby AC3, 6 ch)
English (Dolby AC3, 6 ch)
Subtitles:
English
Italiano
Nederlands
Arabic
Hrvatski
Czech(Ceske)
Dansk
Suomi
Greek
Hebrew
Hindi
Magyar
Islenska
Norsk
Polish
Russian
VTS_04 :
Play Length: 00:00:00+00:00:00+00:00:00+00:00:00+00:00:00+00:00:00+00:00:00+00:00:00+00:00:00+00:00:00+00:00:00+00:00:00+00:00:00+00:00:00+00:00:00
Video: PAL 4:3 (720x576) VBR
Audio:
English (Dolby AC3, 2 ch)
Subtitles:
English
Italiano
Nederlands
VTS_05 :
Play Length: 00:00:00
Video: PAL 16:9 (720x576) VBR, Auto Letterboxed
Audio:
English (Dolby AC3, 2 ch)
Subtitles:
English
Italiano
Nederlands
VTS_06 :
Play Length: 00:00:00
Video: PAL 16:9 (720x576) VBR, Auto Letterboxed
Audio:
English (Dolby AC3, 6 ch)
Italiano (Dolby AC3, 6 ch)
Subtitles:
Nederlands
VTS_07 :
Play Length: 00:00:00
Video: PAL 16:9 (720x576) VBR, Auto Letterboxed
Audio:
English (Dolby AC3, 6 ch)
Italiano (Dolby AC3, 6 ch)
Subtitles:
Nederlands
VTS_08 :
Play Length: 00:00:00
Video: PAL 4:3 (720x576) VBR
Audio:
English (Dolby AC3, 6 ch)
Italiano (Dolby AC3, 6 ch)
Subtitles:
Nederlands
VTS_09 :
Play Length: 00:00:00
Video: PAL 16:9 (720x576) VBR, Auto Letterboxed
Audio:
English (Dolby AC3, 6 ch)
Italiano (Dolby AC3, 6 ch)
Subtitles:
Nederlands
VTS_10 :
Play Length: 00:00:00
Video: PAL 16:9 (720x576) VBR, Auto Letterboxed
Audio:
English (Dolby AC3, 6 ch)
Italiano (Dolby AC3, 6 ch)
Subtitles:
Nederlands
Скриншоты меню
Скриншоты

Обложка + Диск

Рейтинг: PG-13 - Детям до 13 лет просмотр не желателен




реклама партнёра


Вернуться к началу
 Профиль Отправить личное сообщение  
 
   Похожие торренты   Автор   Торрент   Размер 
В этой теме нет новых непрочитанных сообщений. Шесть дней, семь ночей / Six Days Seven Nights [боевик, мелодрама, комедия, приключения, 1998] WEB-DL 720p, Dub

salma3

72 | 14

3.27 ГБ

В этой теме нет новых непрочитанных сообщений. Шесть дней, семь ночей / Six Days Seven Nights [Мелодрама, Комедия, Боевик, Приключения, 1998] HDRip 1080p, Dub+Sub

salma3

0 | 0

4.37 ГБ

В этой теме нет новых непрочитанных сообщений. 40 дней и ночей / 40 Days and Nights [Фантастика, боевик, триллер, приключения, 2012] BDRip 1080p, mvo

salma3

80 | 13

6.67 ГБ

В этой теме нет новых непрочитанных сообщений. Спасти Санту / Saving Santa [мультфильм, мюзикл, комедия, семейный, 2013] DVD5, Dub [Лицензия]

Dracon

6 | 4

4.13 ГБ

В этой теме нет новых непрочитанных сообщений. Семейка Крудс / The Croods [Мультфильм, 2013] DVD5, Dub+Sub [Сжатый]

salma3

13 | 6

4.31 ГБ

В этой теме нет новых непрочитанных сообщений. Отец-молодец / Delivery Man [комедия, драма, 2013] DVD5, Dub+Sub [сжатый]

Dracon

23 | 2

4.37 ГБ

В этой теме нет новых непрочитанных сообщений. Волк с Уолл-стрит / The Wolf of Wall Street [драма, комедия, криминал, биография, 2013] DVD5, Dub+Sub [сжатый]

Dracon

38 | 6

4.36 ГБ


Начать новую тему Ответить на тему  [ 1 сообщение ] 




Для Мосгорсуда, Роскомнадзора и рекламодателей:: mosgorsud-torrent[собачка]yandex.ru