Торрент файл
скачать торрент магнет ссылка Добавлен: 18 июн 2011, 22:23
Размер: 2.5 ГБ
Сидеров: 2
Личеров: 2
Автор

СообщениеДобавлено: 18 июн 2011, 22:23 

Не в сети
Супермодератор
Аватара пользователя
Дата регистрации:
14 июн 2010, 21:00
Возраст: 28
Спасибо: 1324 / 1
Сообщения: 5644
Откуда: НиНО
-Панчинелло - Ты мой + Ты особенный
http://rutracker.org/forum/viewtopic.php?t=3577287-Панчинелло и самый лучший подарок / Зеленый нос
Punchinello and the Most Marvelous Gift / If I Only Had a Green Nose-Страна: США
Жанр: мультфильм, семейный
Продолжительность: 00:55:21
Год выпуска: 2004/2003
Перевод: Профессиональный (дублированный)
Русские субтитры: нет-Режиссёр: Mark Swanson / Todd Waterman (Марк Свансон / Тодд Вайтерман)
Роли озвучивали: Chana Keefer (Lucia), Mark Keefer (Punchinello) и др.-Панчинелло и самый лучший подарок - Веммиксвиль готовится ко дню Мастера. Ганс выпекает шоколадно - вишневый торт с трюфелями.Виолетта делает последние штрихи к праздничному букету цветов.Люсия готовит праздничный концерт.И только Панчинелло расстроен, у него нет ничего, что могло бы сравниться с их невероятными подарками. В самый разгар праздника, планы начинают рушиться, все подарки испорчены, веммиксвильцы в отчаянии.Но Панчинелло приходит на помощь с идеей, как поздравить Мастера в этот особый день.-Зеленый Нос - И снова Панчинелло со своими друзьями попадает в гущу событий. В Веммиксвиль приезжает Вилли Визит и привозит новое веяние. Зеленый Нос - Последний хит сезона! Весь город, желая отставить от моды, выстраивает очередь, чтобы изменить свою внешность. Очень скоро Панчинелло понимает, что изменение внешности и подражание другим не приносит счастья.-Семпл: http://multi-up.com/492439-Качество: DVD5
Формат: DVD-video
Видео: PAL 4:3 (720x576) VBR
Аудио: 192 Кбит/сек, 49.0 КГц, 2 канала, АС-3
Субтитры: отсутствуют-
DVDInfo
Код:
Title: panch2
Size: 2.50 Gb ( 2 623 232,00 KBytes ) - DVD-5
Enabled regions: 1, 2, 3, 4, 5, 6, 8
VTS_01 :
Play Length: 00:27:54
Video: PAL 4:3 (720x576) VBR
Audio:
Not specified (Dolby AC3, 2 ch)
VTS_02 :
Play Length: 00:27:44
Video: PAL 4:3 (720x576) VBR
Audio:
Not specified (Dolby AC3, 2 ch)
* Menus Information *
VIDEO_TS Menu
Video:
PAL 4:3 (720x576) VBR
English Language Unit :
Title Menu
VTS_01 Menu
Video:
PAL 4:3 (720x576) VBR
Audio:
Not specified (LinearPCM, 2 ch)
English Language Unit :
Root Menu
VTS_02 Menu
Video:
PAL 4:3 (720x576) VBR
English Language Unit :
Root Menu
-
Скриншоты меню
Скриншоты

-
Отчет MediaInfo по файлу VTS_01_1.VOB 1023.83 MB
Код:
Общее
Полное имя: D:\panch\panch2\VIDEO_TS\VTS_01_1.VOB
Формат: MPEG-PS
Размер файла: 1024 Мбайт
Продолжительность: 22 м.
Общий поток: 6415 Кбит/сек
Видео
Идентификатор: 224 (0xE0)
Формат: MPEG Video
Версия формата: Version 2
Профиль формата: Main@Main
Параметр BVOP формата: Да
Параметр матрицы формата: По умолчанию
Параметры GOP формата: M=3, N=12
Продолжительность: 22 м.
Вид битрейта: Переменный
Битрейт: 6095 Кбит/сек
Номинальный битрейт: 7700 Кбит/сек
Ширина: 720 пикс.
Высота: 576 пикс.
Соотношение сторон: 4:3
Частота кадров: 25,000 кадр/сек
Стандарт вещания: PAL
Цветовое пространство: YUV
Подвыборка цветности: 4:2:0
Битовая глубина: 8 бит
Тип развёртки: Чересстрочная
Порядок развёртки: Нижнее поле первое
Метод сжатия: С потерями
Бит/(Пиксели*Кадры): 0.588
Размер потока: 973 Мбайт (95%)
Аудио
Идентификатор: 128 (0x80)
Формат: AC-3
Формат/Информация: Audio Coding 3
Расширение режима: CM (complete main)
Продолжительность: 22 м.
Вид битрейта: Постоянный
Битрейт: 192 Кбит/сек
Канал(ы): 2 канала(ов)
Расположение каналов: Front: L R
Частота: 48,0 КГц
Битовая глубина: 16 бит
Метод сжатия: С потерями
Размер потока: 30,6 Мбайт (3%)
Меню
-




реклама партнёра


Вернуться к началу
 Профиль Отправить личное сообщение  
 
   Похожие торренты   Автор   Торрент   Размер 
В этой теме нет новых непрочитанных сообщений. Последний подарок / The Ultimate Gift [Драма, мелодрама, семейный, 2006] BDRip 1080p, Mvo+Sub

salma3

31 | 3

12.15 ГБ

В этой теме нет новых непрочитанных сообщений. Последний подарок / The Ultimate Gift [Драма, мелодрама, семейный, 2006] BDRip 720p, Mvo+Sub

salma3

114 | 3

5.58 ГБ

В этой теме нет новых непрочитанных сообщений. Подарок / The Gift (Джоэл Эдгертон) [триллер, детектив, 2015] HDRip, dub [чистый звук]

Dracon

46 | 1

2.04 ГБ

В этой теме нет новых непрочитанных сообщений. Подарок / The Gift (Джоэл Эдгертон) [триллер, детектив, 2015] HDRip, dub [чистый звук]

Dracon

1602 | 90

1.47 ГБ

В этой теме нет новых непрочитанных сообщений. Подарок / The Gift (Джоэл Эдгертон) [триллер, детектив, 2015] BDRip 720p, dub [чистый звук]

Dracon

75 | 3

5.75 ГБ

В этой теме нет новых непрочитанных сообщений. Подарок / The Gift (Джоэл Эдгертон / Joel Edgerton) [2015г., Австралия, триллер, детектив, WEBRip 720p] Dub [Звук с TS]

Alfredovich

4159 | 140

3.01 ГБ

В этой теме нет новых непрочитанных сообщений. Подарок с характером [семейный, приключения, комедия, 2014] DVD5 [Сжатый]

Dracon

73 | 8

4.11 ГБ


Начать новую тему Ответить на тему  [ 1 сообщение ] 




Для Мосгорсуда, Роскомнадзора и рекламодателей:: mosgorsud-torrent[собачка]yandex.ru