Торрент файл
скачать торрент магнет ссылка Добавлен: 18 июн 2011, 22:20
Размер: 7.55 ГБ
Сидеров: 3
Личеров: 3
Автор

СообщениеДобавлено: 18 июн 2011, 22:20 

Не в сети
Супермодератор
Аватара пользователя
Дата регистрации:
14 июн 2010, 21:00
Возраст: 28
Спасибо: 1324 / 1
Сообщения: 5644
Откуда: НиНО
Суперсемейка (The Incredibles)
Страна: США
Жанр: мультфильм, комедия, фантастика
Продолжительность: 01:55:17
Год выпуска: 2004
Перевод (1): Профессиональный (двухголосый закадровый)
Перевод (2): Авторский (одноголосый закадровый)
Перевод (3): Профессиональный (дублированный)
Субтитры: английские, русские (по Гоблину), русские (R5)
Режиссёр: Брэд Бёрд / Brad Bird
Роли озвучивали: Крэйг Т. Нельсон — Боб Парр / Mr. Incredible
Холли Хантер — Хелен Парр / Elastigirl
Сэмюэл Л. Джексон — Люциус Бест / Frozone
Джейсон Ли — Бадди Пайн / Syndrome
Брэд Бёрд — Эдна Мод / Edna 'E' Mode
Описание: История семьи супергероев, члены которой уже отошли от больших дел и предпочитают жить непримечательной жизнью обычных землян. В прошлом все они обладали сверхъестественными способностями и относительно легко справлялись с мировым злом.
Но в один прекрасный день папаше и его домочадцам приходится вновь облачиться в прорезиненные костюмы супергероев (а для этого нужно срочно сбросить лишние килограммы!) и в очередной раз спасти человечество от таинственного злодея…
Доп. материалы: Introduction to the DVD by writer/director Brad Bird, THX Certified, THX Optimizer, Sneak Peeks:
- Cars
- Chicken Little
- Cinderella (Platinum Edition DVD)
- Miyazaki preview: Nausicaä of the Valley of the Wind/Porco Rosso/The Cat Returns
- Lilo & Stitch 2
- The Incredibles (video game)
- The Twilight Zone Tower of Terror at Disneyland (promo)
Easter eggs: зайти в "Commentaries Menu" и дождаться появления силуэта Mr. Incredible и нажать на него. Вы увидите сценку с танцующим Mr. Incredible!
Доп. информация: Исходник DVD R1 CE America - (Buena Vista Home Entertainment), 1-ый диск. Заменил испан. и франц. дорожки и субтитры на русские (Tycoon и Goblin), удалил комментарии, добавив дубляж (вкл. с пульта или через меню софтовых проигрывателей). Меню анимированное озвученное, "Set Up" подкорректировал (см. скриншот).
Семпл: http://multi-up.com/491584
Качество: DVD9 (Custom)
Формат: DVD-video
Видео: NTSC 16:9 (720x480) VBR ~ 7000 kbps
Аудио 1: English (Dolby AC3, 6 ch) 448 kbps
Аудио 2: Russian (Dolby AC3, 6 ch) 384 kbps - Tycoon-Studio
Аудио 3: Russian (Dolby AC3, 6 ch) 384 kbps - Д. Пучков (Гоблин / Goblin)
Аудио 4: Russian (Dolby AC3, 6 ch) 384 kbps - Дубляж-Диск 2 с переведёнными доп. материалами тут -> http://rutracker.org/forum/viewtopic.php?t=2323910 (там - PAL, ибо лицуха).-
DVDInfo
Код:
Title: FreeAgent Drive
Size: 7.55 Gb ( 7 920 312 KBytes ) - DVD-9
Enabled regions: 1, 2, 3, 4, 5, 6, 7, 8
VTS_01 :
Play Length: 01:55:17
Video: NTSC 16:9 (720x480) VBR, Auto Letterboxed
Audio:
English (Dolby AC3, 6 ch)
Russian (Dolby AC3, 6 ch)
Russian (Dolby AC3, 6 ch)
Russian (Dolby AC3, 6 ch)
Subtitles:
English
Russian
Russian
VTS_02 :
Play Length:
Video: NTSC 16:9 (720x480) VBR, Auto Pan&Scan
VTS_03 :
Play Length: 00:00:06
Video: NTSC 16:9 (720x480) VBR, Auto Letterboxed
Audio:
Not specified (Dolby AC3, 2 ch)
VTS_04 :
Play Length: 00:00:28
Video: NTSC 16:9 (720x480) VBR, Auto Letterboxed
Audio:
Not specified (Dolby AC3, 6 ch)
VTS_05 :
Play Length: 00:00:09+00:00:06
Video: NTSC 16:9 (720x480) VBR, Auto Letterboxed
Audio:
Not specified (Dolby AC3, 2 ch)
VTS_06 :
Play Length: 00:00:08+00:02:48+00:07:02+00:01:10+00:01:26+00:02:20+00:01:02+00:00:32+00:00:31
Video: NTSC 16:9 (720x480) VBR, Auto Pan&Scan
Audio:
English (Dolby AC3, 6 ch)
VTS_07 :
Play Length: 00:01:00
Video: NTSC 16:9 (720x480) VBR, Auto Letterboxed
Audio:
English (Dolby AC3, 2 ch)
Subtitles:
English
Espanol
Francais
VTS_08 :
Play Length: 00:00:34
Video: NTSC 16:9 (720x480) VBR, Auto Letterboxed
Audio:
English (Dolby AC3, 2 ch)
Subtitles:
English
VTS_09 :
Play Length: 00:01:58+00:01:55
Video: NTSC 16:9 (720x480) VBR, Auto Letterboxed
Audio:
English (Dolby AC3, 6 ch)
VTS_10 :
Play Length: 00:00:22+00:00:41+00:00:15+00:00:01
Video: NTSC 4:3 (720x480) VBR
Audio:
Not specified (Dolby AC3, 6 ch)
Subtitles:
Not specified
VTS_11 :
Play Length: 00:00:50
Video: NTSC 4:3 (720x480) VBR
Audio:
Not specified (Dolby AC3, 2 ch)
Subtitles:
Not specified
English
Espanol
Portugues
VTS_12 :
Play Length: 00:00:01
Video: NTSC 16:9 (720x480) VBR, Auto Letterboxed
Subtitles:
Not specified
VTS_13 :
Play Length: 00:00:40
Video: NTSC 16:9 (720x480) VBR, Auto Letterboxed
Audio:
English (Dolby AC3, 6 ch)
Espanol (Dolby AC3, 6 ch)
Francais (Dolby AC3, 6 ch)
Subtitles:
Not specified
Menu Video:
NTSC 16:9 (720x480) VBR
Auto Pan&Scan
Menu Subtitles:
Not specified
Menu English Language Unit :
Root Menu
Subpicture Menu
Audio Menu
MediaInfo
General
Complete name : INCREDIBLES_NTSC_DVD9\VIDEO_TS\VTS_01_1.VOB
Format : MPEG-PS
File size : 1 024 MiB
Duration : 17mn 41s
Overall bit rate : 8 096 Kbps
Video
ID : 224 (0xE0)
Format : MPEG Video
Format version : Version 2
Format profile : Main@Main
Format settings, BVOP : Yes
Format settings, Matrix : Default
Duration : 17mn 41s
Bit rate mode : Variable
Bit rate : 6 335 Kbps
Nominal bit rate : 9 800 Kbps
Width : 720 pixels
Height : 480 pixels
Display aspect ratio : 16:9
Frame rate : 23.976 fps
Standard : NTSC
Color space : YUV
Chroma subsampling : 4:2:0
Bit depth : 8 bits
Scan type : Progressive
Scan order : 2:3 Pulldown
Compression mode : Lossy
Bits/(Pixel*Frame) : 0.765
Stream size : 801 MiB (78%)
Audio #1
ID : 128 (0x80)
Format : AC-3
Format/Info : Audio Coding 3
Mode extension : CM (complete main)
Duration : 17mn 40s
Bit rate mode : Constant
Bit rate : 448 Kbps
Channel(s) : 6 channels
Channel positions : Front: L C R, Side: L R, LFE
Sampling rate : 48.0 KHz
Bit depth : 16 bits
Compression mode : Lossy
Stream size : 56.7 MiB (6%)
Audio #2
ID : 129 (0x81)
Format : AC-3
Format/Info : Audio Coding 3
Mode extension : CM (complete main)
Duration : 17mn 40s
Bit rate mode : Constant
Bit rate : 384 Kbps
Channel(s) : 6 channels
Channel positions : Front: L C R, Side: L R, LFE
Sampling rate : 48.0 KHz
Bit depth : 16 bits
Compression mode : Lossy
Stream size : 48.6 MiB (5%)
Audio #3
ID : 130 (0x82)
Format : AC-3
Format/Info : Audio Coding 3
Mode extension : CM (complete main)
Duration : 17mn 40s
Bit rate mode : Constant
Bit rate : 384 Kbps
Channel(s) : 6 channels
Channel positions : Front: L C R, Side: L R, LFE
Sampling rate : 48.0 KHz
Bit depth : 16 bits
Compression mode : Lossy
Stream size : 48.6 MiB (5%)
Audio #4
ID : 131 (0x83)
Format : AC-3
Format/Info : Audio Coding 3
Mode extension : CM (complete main)
Duration : 17mn 40s
Bit rate mode : Constant
Bit rate : 384 Kbps
Channel(s) : 6 channels
Channel positions : Front: L C R, Side: L R, LFE
Sampling rate : 48.0 KHz
Bit depth : 16 bits
Compression mode : Lossy
Stream size : 48.6 MiB (5%)
Text #1
ID : 32 (0x20)
Format : RLE
Format/Info : Run-length encoding
Duration : 17mn 40s
Delay relative to video : 367ms
Text #2
ID : 224 (0xE0)-DVD-2
Format : EIA-608
Muxing mode : DVD-Video
Muxing mode, more info : Muxed in Video #1
Stream size : 0.00 Byte (0%)
Text #3
ID : 33 (0x21)
Format : RLE
Format/Info : Run-length encoding
Text #4
ID : 34 (0x22)
Format : RLE
Format/Info : Run-length encoding
Menu
Скриншоты меню
Скриншоты (с субтитрами и без)
Список софта, финал. скрины DVDRemake
Subtitle Workshop, MaestroSBT, DVDSubEdit, PgcDemux, Delaycut, MuxMan, DVDRemakePro
-В основном подключён к сети с вечера до утра, но бывает и круглосуточно.




реклама партнёра


Вернуться к началу
 Профиль Отправить личное сообщение  
 
   Похожие торренты   Автор   Торрент   Размер 
В этой теме нет новых непрочитанных сообщений. Суперсемейка / The Incredibles [мультфильм, боевик, приключения, семейный, 2004] BDRip 1080p, Dub

salma3

220 | 13

5.77 ГБ

В этой теме нет новых непрочитанных сообщений. Суперсемейка / The Incredibles [семейная комедия, анимация, 2004] BDRip 720p, Dub

salma3

216 | 12

2.73 ГБ

В этой теме нет новых непрочитанных сообщений. Земля будущего / Tomorrowland (Брэд Бёрд) [фантастика, боевик, детектив, приключения, 2015] Blu-Ray, Dub+Sub [Лицензия]

Dracon

84 | 13

37.41 ГБ

В этой теме нет новых непрочитанных сообщений. Земля будущего / Tomorrowland (Брэд Бёрд) [фантастика, боевик, детектив, приключения, 2015] BDRip-AVC, Dub+Sub [Лицензия]

Dracon

1812 | 91

1.75 ГБ

В этой теме нет новых непрочитанных сообщений. Земля будущего / Tomorrowland (Брэд Бёрд) [фантастика, боевик, детектив, приключения, 2015] DVD5, Dub+Sub [Лицензия]

Dracon

298 | 41

4.37 ГБ

В этой теме нет новых непрочитанных сообщений. Земля будущего / Tomorrowland (Брэд Бёрд) [фантастика, боевик, детектив, приключения, 2015] HDRip, Dub [iTunes]

Dracon

892 | 17

1.42 ГБ

В этой теме нет новых непрочитанных сообщений. Земля будущего / Tomorrowland (Брэд Бёрд) [фантастика, боевик, детектив, приключения, 2015] HDRip, Dub [iTunes]

Dracon

141 | 1

2.05 ГБ


Начать новую тему Ответить на тему  [ 1 сообщение ] 




Для Мосгорсуда, Роскомнадзора и рекламодателей:: mosgorsud-torrent[собачка]yandex.ru