Торрент файл
скачать торрент магнет ссылка Добавлен: 18 июн 2011, 22:19
Размер: 4.52 ГБ
Сидеров: 1
Личеров: 2
Автор

СообщениеДобавлено: 18 июн 2011, 22:19 

Не в сети
Супермодератор
Аватара пользователя
Дата регистрации:
14 июн 2010, 21:00
Возраст: 29
Спасибо: 1337 / 1
Сообщения: 5611
Откуда: НиНО
Мы вернулись! История динозавров / We're Back! A Dinosaur's Story-Год выпуска: 1993
Страна: CША
Жанр: Мультфильм-Продолжительность: 71 мин. (1:10:48)-Перевод: Авторский (одноголосый) (В. Дохалов)-Русские субтитры: нет-Режиссер: Дик Зондаг / Dick Zondag, Фил Ниббелинк / Phil Nibbelink-Роли озвучивали актеры: : Джон Гудмэн (John Goodman), Джей Лино (Jay Leno), Рэа Перлмэн (Rhea Perlman), Уолтер Кронкит (Walter Cronkit), Мартин Шот (Martin Short), Джулия Чайлд (Julia Child)-Описание: Все знают, что динозавры вымерли миллионы лет назад, правильно? Ошибаетесь! Стивен Спилберг представляет прекрасно анимированную, добрую сказку о приключениях четырех больших и неуклюжих, но милых и разумных (!!!) динозавров, которые "вернулись" в современный Нью-Йорк, чтобы осуществить детские мечты. Вы спросите, как же такое могло получиться? А вот как: путешественник во времени капитан НьюАйз с помощью своих увеличивающих интеллект хлопьев "Brain Grain" трансформировал Рекса, Эльзу, Двиба и Вуга в мыслящих, чувствующих и даже говорящих созданий. Эти четверо друзей решают встретиться с детишками из далекого будущего, мечтающими увидеть настоящих динозавров. И вот они уже спешат навстречу приключениям посреди огромного города... Смогут ли добродушные динозавры спасти своих новых маленьких друзей Луи и Сесилию от козней СкрюАйза (злобного и коварного брата НьюАйза)? Тем более, теперь только от Рекса и его товарищей зависит доказательство того, что любовь, дружба и доброта в очередной раз восторжествуют над силами зла... Мультфильм снят по книге Хадсон Тэлботт (Hudson Talbott) "Мы вернулись! История динозавров".-Доп. информация: Исходник http://www.amazon.com/Were-Back-Dinosaurs-Story-Goo...07230&sr=8-1
за который говорим СПАСИБО wolphin (Пользователь)
Релиз:
Mediainfo исходника
General
Complete name : E:\WERE_BACK_A_DINOSAURS_STORY\VIDEO_TS\VIDEO_TS.BUP
Format : DVD Video
Format profile : Menu
File size : 20.0 KiB
Video
ID : 0xE0
Format : MPEG Video
Format version : Version 2
Bit rate mode : Variable
Width : 720 pixels
Height : 480 pixels
Display aspect ratio : 16:9
Frame rate : 29.970 fps
Standard : NTSC
Text
Format : RLE
Format/Info : Run-length encoding
Resolution : 2 bits
General
Complete name : E:\WERE_BACK_A_DINOSAURS_STORY\VIDEO_TS\VIDEO_TS.IFO
Format : DVD Video
Format profile : Menu
File size : 20.0 KiB
Video
ID : 0xE0
Format : MPEG Video
Format version : Version 2
Bit rate mode : Variable
Width : 720 pixels
Height : 480 pixels
Display aspect ratio : 16:9
Frame rate : 29.970 fps
Standard : NTSC
Text
Format : RLE
Format/Info : Run-length encoding
Resolution : 2 bits
General
Complete name : E:\WERE_BACK_A_DINOSAURS_STORY\VIDEO_TS\VIDEO_TS.VOB
Format : MPEG-PS
File size : 1.62 MiB
Duration : 33ms
Overall bit rate : 413 Mbps
Video
ID : 224 (0xE0)
Format : MPEG Video
Format version : Version 2
Format profile : Main@Main
Format settings, Matrix : Default
Duration : 33ms
Bit rate mode : Constant
Bit rate : 8 000 Kbps
Width : 720 pixels
Height : 480 pixels
Display aspect ratio : 16:9
Frame rate : 29.970 fps
Standard : NTSC
Colorimetry : 4:2:0
Scan type : Progressive
Scan order : Top Field First
Bits/(Pixel*Frame) : 0.772
Stream size : 32.2 KiB (2%)
Text #1
ID : 32 (0x20)
Format : RLE
Format/Info : Run-length encoding
Video delay : -50ms
Text #2
ID : 33 (0x21)
Format : RLE
Format/Info : Run-length encoding
Video delay : -50ms
Menu
General
Complete name : E:\WERE_BACK_A_DINOSAURS_STORY\VIDEO_TS\VTS_01_0.BUP
Format : DVD Video
Format profile : Program
File size : 56.0 KiB
Video
ID : 0xE0
Format : MPEG Video
Format version : Version 2
Bit rate mode : Variable
Width : 720 pixels
Height : 480 pixels
Display aspect ratio : 16:9
Frame rate : 29.970 fps
Standard : NTSC
Audio
ID : 0x80
Format : AC-3
Format/Info : Audio Coding 3
Channel(s) : 6 channels
Sampling rate : 48.0 KHz
Language : English
Text #1
ID : 0x20
Format : RLE
Format/Info : Run-length encoding
Resolution : 2 bits
Language : English
Text #2
ID : 0x21
Format : RLE
Format/Info : Run-length encoding
Resolution : 2 bits
Language : Spanish
Text #3
ID : 0x22
Format : RLE
Format/Info : Run-length encoding
Resolution : 2 bits
Language : French
Menu
List (Audio) : 0
List (Subtitles 4/3) : 0 / 0 / 0
List (Subtitles Wide) : 0 / 1 / 2
List (Subtitles Letterbox) : 0 / 1 / 2
List (Subtitles Pan&Scan) : 0 / 0 / 0
General
Complete name : E:\WERE_BACK_A_DINOSAURS_STORY\VIDEO_TS\VTS_01_0.IFO
Format : DVD Video
Format profile : Program
File size : 56.0 KiB
Video
ID : 0xE0
Format : MPEG Video
Format version : Version 2
Bit rate mode : Variable
Width : 720 pixels
Height : 480 pixels
Display aspect ratio : 16:9
Frame rate : 29.970 fps
Standard : NTSC
Audio
ID : 0x80
Format : AC-3
Format/Info : Audio Coding 3
Channel(s) : 6 channels
Sampling rate : 48.0 KHz
Language : English
Text #1
ID : 0x20
Format : RLE
Format/Info : Run-length encoding
Resolution : 2 bits
Language : English
Text #2
ID : 0x21
Format : RLE
Format/Info : Run-length encoding
Resolution : 2 bits
Language : Spanish
Text #3
ID : 0x22
Format : RLE
Format/Info : Run-length encoding
Resolution : 2 bits
Language : French
Menu
List (Audio) : 0
List (Subtitles 4/3) : 0 / 0 / 0
List (Subtitles Wide) : 0 / 1 / 2
List (Subtitles Letterbox) : 0 / 1 / 2
List (Subtitles Pan&Scan) : 0 / 0 / 0
General
Complete name : E:\WERE_BACK_A_DINOSAURS_STORY\VIDEO_TS\VTS_01_0.VOB
Format : MPEG-PS
File size : 2.29 MiB
Video
ID : 224 (0xE0)
Format : MPEG Video
Format version : Version 2
Format profile : Main@Main
Format settings, Matrix : Default
Bit rate mode : Constant
Bit rate : 8 000 Kbps
Width : 720 pixels
Height : 480 pixels
Display aspect ratio : 16:9
Frame rate : 29.970 fps
Standard : NTSC
Colorimetry : 4:2:0
Scan type : Progressive
Scan order : Top Field First
Bits/(Pixel*Frame) : 0.772
Audio
ID : 128 (0x80)
Format : AC-3
Format/Info : Audio Coding 3
Bit rate mode : Constant
Bit rate : 192 Kbps
Channel(s) : 2 channels
Channel positions : L R
Sampling rate : 48.0 KHz
Text #1
ID : 32 (0x20)
Format : RLE
Format/Info : Run-length encoding
Text #2
ID : 33 (0x21)
Format : RLE
Format/Info : Run-length encoding
Menu
General
Complete name : E:\WERE_BACK_A_DINOSAURS_STORY\VIDEO_TS\VTS_01_1.VOB
Format : MPEG-PS
File size : 1 024 MiB
Duration : 16mn 23s
Overall bit rate : 8 735 Kbps
Video
ID : 224 (0xE0)
Format : MPEG Video
Format version : Version 2
Format profile : Main@Main
Format settings, Matrix : Default
Duration : 16mn 23s
Bit rate mode : Variable
Bit rate : 7 940 Kbps
Nominal bit rate : 9 800 Kbps
Width : 720 pixels
Height : 480 pixels
Display aspect ratio : 16:9
Frame rate : 23.976 fps
Standard : NTSC
Colorimetry : 4:2:0
Scan type : Progressive
Scan order : 2:3 Pulldown
Bits/(Pixel*Frame) : 0.958
Stream size : 931 MiB (91%)
Audio
ID : 128 (0x80)
Format : AC-3
Format/Info : Audio Coding 3
Duration : 16mn 22s
Bit rate mode : Constant
Bit rate : 448 Kbps
Channel(s) : 6 channels
Channel positions : Front: L C R, Surround: L R, LFE
Sampling rate : 48.0 KHz
Stream size : 52.5 MiB (5%)
Text
ID : 32 (0x20)
Format : RLE
Format/Info : Run-length encoding
Menu
General
Complete name : E:\WERE_BACK_A_DINOSAURS_STORY\VIDEO_TS\VTS_01_2.VOB
Format : MPEG-PS
File size : 1 024 MiB
Duration : 15mn 22s
Overall bit rate : 9 309 Kbps
Video
ID : 224 (0xE0)
Format : MPEG Video
Format version : Version 2
Format profile : Main@Main
Format settings, Matrix : Default
Duration : 15mn 22s
Bit rate mode : Variable
Bit rate : 8 492 Kbps
Nominal bit rate : 9 800 Kbps
Width : 720 pixels
Height : 480 pixels
Display aspect ratio : 16:9
Frame rate : 23.976 fps
Standard : NTSC
Colorimetry : 4:2:0
Scan type : Progressive
Scan order : 2:3 Pulldown
Bits/(Pixel*Frame) : 1.025
Stream size : 934 MiB (91%)
Audio
ID : 128 (0x80)
Format : AC-3
Format/Info : Audio Coding 3
Duration : 15mn 22s
Bit rate mode : Constant
Bit rate : 448 Kbps
Channel(s) : 6 channels
Channel positions : Front: L C R, Surround: L R, LFE
Sampling rate : 48.0 KHz
Video delay : -206ms
Stream size : 49.3 MiB (5%)
Text #1
ID : 32 (0x20)
Format : RLE
Format/Info : Run-length encoding
Video delay : 1s 368ms
Text #2
ID : 33 (0x21)
Format : RLE
Format/Info : Run-length encoding
Video delay : 1s 368ms
Text #3
ID : 34 (0x22)
Format : RLE
Format/Info : Run-length encoding
Video delay : 1s 368ms
Menu
General
Complete name : E:\WERE_BACK_A_DINOSAURS_STORY\VIDEO_TS\VTS_01_3.VOB
Format : MPEG-PS
File size : 1 023 MiB
Duration : 15mn 25s
Overall bit rate : 9 274 Kbps
Video
ID : 224 (0xE0)
Format : MPEG Video
Format version : Version 2
Format profile : Main@Main
Format settings, Matrix : Default
Duration : 15mn 25s
Bit rate mode : Variable
Bit rate : 8 457 Kbps
Nominal bit rate : 9 800 Kbps
Width : 720 pixels
Height : 480 pixels
Display aspect ratio : 16:9
Frame rate : 23.976 fps
Standard : NTSC
Colorimetry : 4:2:0
Scan type : Progressive
Scan order : 2:3 Pulldown
Bits/(Pixel*Frame) : 1.021
Stream size : 933 MiB (91%)
Audio
ID : 128 (0x80)
Format : AC-3
Format/Info : Audio Coding 3
Duration : 15mn 25s
Bit rate mode : Constant
Bit rate : 448 Kbps
Channel(s) : 6 channels
Channel positions : Front: L C R, Surround: L R, LFE
Sampling rate : 48.0 KHz
Video delay : -278ms
Stream size : 49.4 MiB (5%)
Menu
General
Complete name : E:\WERE_BACK_A_DINOSAURS_STORY\VIDEO_TS\VTS_01_4.VOB
Format : MPEG-PS
File size : 1 024 MiB
Duration : 15mn 25s
Overall bit rate : 9 276 Kbps
Video
ID : 224 (0xE0)
Format : MPEG Video
Format version : Version 2
Format profile : Main@Main
Format settings, Matrix : Default
Duration : 15mn 25s
Bit rate mode : Variable
Bit rate : 8 460 Kbps
Nominal bit rate : 9 800 Kbps
Width : 720 pixels
Height : 480 pixels
Display aspect ratio : 16:9
Frame rate : 23.976 fps
Standard : NTSC
Colorimetry : 4:2:0
Scan type : Progressive
Scan order : 2:3 Pulldown
Bits/(Pixel*Frame) : 1.021
Stream size : 934 MiB (91%)
Audio
ID : 128 (0x80)
Format : AC-3
Format/Info : Audio Coding 3
Duration : 15mn 25s
Bit rate mode : Constant
Bit rate : 448 Kbps
Channel(s) : 6 channels
Channel positions : Front: L C R, Surround: L R, LFE
Sampling rate : 48.0 KHz
Video delay : -229ms
Stream size : 49.4 MiB (5%)
Menu
General
Complete name : E:\WERE_BACK_A_DINOSAURS_STORY\VIDEO_TS\VTS_01_5.VOB
Format : MPEG-PS
File size : 385 MiB
Video
ID : 224 (0xE0)
Format : MPEG Video
Format version : Version 2
Format profile : Main@Main
Format settings, Matrix : Default
Bit rate mode : Variable
Bit rate : 9 800 Kbps
Width : 720 pixels
Height : 480 pixels
Display aspect ratio : 16:9
Frame rate : 23.976 fps
Standard : NTSC
Colorimetry : 4:2:0
Scan type : Progressive
Scan order : 2:3 Pulldown
Bits/(Pixel*Frame) : 1.183
Audio
ID : 128 (0x80)
Format : AC-3
Format/Info : Audio Coding 3
Bit rate mode : Constant
Bit rate : 448 Kbps
Channel(s) : 6 channels
Channel positions : Front: L C R, Surround: L R, LFE
Sampling rate : 48.0 KHz
Video delay : -277ms
Text #1
ID : 32 (0x20)
Format : RLE
Format/Info : Run-length encoding
Video delay : 617ms
Text #2
ID : 33 (0x21)
Format : RLE
Format/Info : Run-length encoding
Video delay : 617ms
Text #3
ID : 34 (0x22)
Format : RLE
Format/Info : Run-length encoding
Video delay : 617ms
Menu
General
Complete name : E:\WERE_BACK_A_DINOSAURS_STORY\VIDEO_TS\VTS_02_0.BUP
Format : DVD Video
Format profile : Program
File size : 18.0 KiB
Video
ID : 0xE0
Format : MPEG Video
Format version : Version 2
Bit rate mode : Variable
Width : 720 pixels
Height : 480 pixels
Display aspect ratio : 16:9
Frame rate : 29.970 fps
Standard : NTSC
Audio
ID : 0x80
Format : AC-3
Format/Info : Audio Coding 3
Channel(s) : 6 channels
Sampling rate : 48.0 KHz
Language : English
Menu
List (Audio) : 0
General
Complete name : E:\WERE_BACK_A_DINOSAURS_STORY\VIDEO_TS\VTS_02_0.IFO
Format : DVD Video
Format profile : Program
File size : 18.0 KiB
Video
ID : 0xE0
Format : MPEG Video
Format version : Version 2
Bit rate mode : Variable
Width : 720 pixels
Height : 480 pixels
Display aspect ratio : 16:9
Frame rate : 29.970 fps
Standard : NTSC
Audio
ID : 0x80
Format : AC-3
Format/Info : Audio Coding 3
Channel(s) : 6 channels
Sampling rate : 48.0 KHz
Language : English
Menu
List (Audio) : 0
General
Complete name : E:\WERE_BACK_A_DINOSAURS_STORY\VIDEO_TS\VTS_02_0.VOB
Format : MPEG-PS
File size : 8.00 KiB
Duration : 33ms
Overall bit rate : 1 986 Kbps
Video
ID : 224 (0xE0)
Format : MPEG Video
Format version : Version 2
Format profile : Main@Main
Format settings, Matrix : Default
Duration : 33ms
Bit rate mode : Constant
Bit rate : 8 000 Kbps
Width : 720 pixels
Height : 480 pixels
Display aspect ratio : 4:3
Frame rate : 29.970 fps
Standard : NTSC
Colorimetry : 4:2:0
Scan type : Progressive
Scan order : Top Field First
Bits/(Pixel*Frame) : 0.772
Stream size : 32.2 KiB
Menu
General
Complete name : E:\WERE_BACK_A_DINOSAURS_STORY\VIDEO_TS\VTS_02_1.VOB
Format : MPEG-PS
File size : 17.0 MiB
Duration : 22s 976ms
Overall bit rate : 6 193 Kbps
Video
ID : 224 (0xE0)
Format : MPEG Video
Format version : Version 2
Format profile : Main@Main
Format settings, Matrix : Default
Duration : 82ms
Bit rate mode : Variable
Bit rate : 5 499 Kbps
Nominal bit rate : 9 800 Kbps
Width : 720 pixels
Height : 480 pixels
Display aspect ratio : 16:9
Frame rate : 29.970 fps
Standard : NTSC
Colorimetry : 4:2:0
Scan type : Interlaced
Scan order : Top Field First
Bits/(Pixel*Frame) : 0.531
Stream size : 55.0 KiB (0%)
Audio
ID : 128 (0x80)
Format : AC-3
Format/Info : Audio Coding 3
Duration : 22s 976ms
Bit rate mode : Constant
Bit rate : 448 Kbps
Channel(s) : 6 channels
Channel positions : Front: L C R, Surround: L R, LFE
Sampling rate : 48.0 KHz
Stream size : 1.23 MiB (7%)
Menu
General
Complete name : E:\WERE_BACK_A_DINOSAURS_STORY\VIDEO_TS\VTS_03_0.BUP
Format : DVD Video
Format profile : Program
File size : 18.0 KiB
Video
ID : 0xE0
Format : MPEG Video
Format version : Version 2
Bit rate mode : Variable
Width : 720 pixels
Height : 480 pixels
Display aspect ratio : 16:9
Frame rate : 29.970 fps
Standard : NTSC
Audio
ID : 0x80
Format : AC-3
Format/Info : Audio Coding 3
Channel(s) : 6 channels
Sampling rate : 48.0 KHz
Language : English
Menu
List (Audio) : 0
General
Complete name : E:\WERE_BACK_A_DINOSAURS_STORY\VIDEO_TS\VTS_03_0.IFO
Format : DVD Video
Format profile : Program
File size : 18.0 KiB
Video
ID : 0xE0
Format : MPEG Video
Format version : Version 2
Bit rate mode : Variable
Width : 720 pixels
Height : 480 pixels
Display aspect ratio : 16:9
Frame rate : 29.970 fps
Standard : NTSC
Audio
ID : 0x80
Format : AC-3
Format/Info : Audio Coding 3
Channel(s) : 6 channels
Sampling rate : 48.0 KHz
Language : English
Menu
List (Audio) : 0
General
Complete name : E:\WERE_BACK_A_DINOSAURS_STORY\VIDEO_TS\VTS_03_0.VOB
Format : MPEG-PS
File size : 10.0 KiB
Duration : 33ms
Overall bit rate : 2 482 Kbps
Video
ID : 224 (0xE0)
Format : MPEG Video
Format version : Version 2
Format profile : Main@Main
Format settings, Matrix : Default
Duration : 33ms
Bit rate mode : Constant
Bit rate : 8 000 Kbps
Width : 720 pixels
Height : 480 pixels
Display aspect ratio : 16:9
Frame rate : 29.970 fps
Standard : NTSC
Colorimetry : 4:2:0
Scan type : Progressive
Scan order : Top Field First
Bits/(Pixel*Frame) : 0.772
Stream size : 32.2 KiB
Menu
General
Complete name : E:\WERE_BACK_A_DINOSAURS_STORY\VIDEO_TS\VTS_03_1.VOB
Format : MPEG-PS
File size : 12.7 MiB
Duration : 13s 632ms
Overall bit rate : 7 798 Kbps
Video
ID : 224 (0xE0)
Format : MPEG Video
Format version : Version 2
Format profile : Main@Main
Format settings, Matrix : Default
Duration : 3s 203ms
Bit rate mode : Variable
Bit rate : 7 040 Kbps
Nominal bit rate : 9 800 Kbps
Width : 720 pixels
Height : 480 pixels
Display aspect ratio : 16:9
Frame rate : 29.970 fps
Standard : Component
Colorimetry : 4:2:0
Scan type : Interlaced
Scan order : Top Field First
Bits/(Pixel*Frame) : 0.680
Stream size : 2.69 MiB (21%)
Audio
ID : 128 (0x80)
Format : AC-3
Format/Info : Audio Coding 3
Duration : 13s 632ms
Bit rate mode : Constant
Bit rate : 448 Kbps
Channel(s) : 6 channels
Channel positions : Front: L C R, Surround: L R, LFE
Sampling rate : 48.0 KHz
Stream size : 746 KiB (6%)
Menu
Звуковая дорожка с моей же раздачи http://rutracker.org/forum/viewtopic.php?t=779062
Используемый софт
DVDDecrypter, VOBEdit - разборка на элементарные стримы DVD- материала
DVD Maestro - авторинг

Nuendo - работа со звуком
Subrip- работа с субтитрами
Photoshop - правка меню
-Качество: DVD9
Формат: DVD Video
Видео кодек: MPEG2
Аудио кодек: AC3
Видео: 720x480 NTSC 16:9 (Анаморф)

Аудио: Dolby Digital 2.0 {256 kbps} Русский с VHS (В. Дохалов)
Аудио: Dolby Digital 5.1 {448 kbps} Английский
Субтитры: Английские / Французские / Испанские- Семпл: http://multi-up.com/260934-
Скриншоты
Скриншоты меню
Скриншоты фильма
DVDInfo
Title: Disc D
Size: 4.52 Gb ( 4 743 436,00 KBytes ) - DVD-9
Enabled regions: 1, 2, 3, 4, 5, 6
VTS_01 :
Play Length: 00:00:05
Video: NTSC 16:9 (720x480) VBR, Auto Letterboxed
VTS_02 :
Play Length: 00:00:23
Video: NTSC 16:9 (720x480) VBR, Auto Letterboxed
Audio:
Russian (Dolby AC3, 6 ch)
VTS_03 :
Play Length: 01:10:48
Video: NTSC 16:9 (720x480) VBR, Auto Letterboxed
Audio:
Russian (Dolby AC3, 2 ch)
English (Dolby AC3, 6 ch)
Subtitles:
English
Espanol
Francais




реклама партнёра


Вернуться к началу
 Профиль Отправить личное сообщение  
 
   Похожие торренты   Автор   Торрент   Размер 
В этой теме нет новых непрочитанных сообщений. Мы вернулись! История динозавра / We're Back! A Dinosaur's Story [мультфильм, фэнтези, приключения, семейный, 1993] BDRip 720p, Mvo

salma3

21 | 10

7.62 ГБ

В этой теме нет новых непрочитанных сообщений. Поезд динозавров / / Dinosaur Train / 1 сезон, 1-40 серии из 40 [мультфильм, семейный, 2009] SATRip, Dub

salma3

109 | 36

12.84 ГБ

В этой теме нет новых непрочитанных сообщений. Поезд динозавров / / Dinosaur Train / 2 сезон, 1-25 серии из 25 [мультфильм, семейный, 2009] SATRip, Dub

salma3

101 | 21

7.53 ГБ

В этой теме нет новых непрочитанных сообщений. Внутренняя дорога / The Road Within (Грен Уэллс / Gren Wells) [2014г., драма, комедия, WEB-DL 720p] [Гараж Дубляж]

Alfredovich

496 | 20

3.45 ГБ

В этой теме нет новых непрочитанных сообщений. Король Ральф / King Ralph [мелодрама, комедия, 1991] BDRip 1080p, Mvo

salma3

27 | 2

9.23 ГБ

В этой теме нет новых непрочитанных сообщений. Остров динозавров / Dinosaur Island (Матт Друммонд) [Детский, фантастика, приключения, семейный, 2014] HDRip, avo

Dracon

1071 | 48

1.37 ГБ

В этой теме нет новых непрочитанных сообщений. Остров динозавров / Dinosaur Island (Матт Друммонд) [Детский, фантастика, приключения, семейный, 2014] BDRemux 1080p, avo

Dracon

0 | 0

16.25 ГБ


Начать новую тему Ответить на тему  [ 1 сообщение ] 




Для Мосгорсуда, Роскомнадзора и рекламодателей:: mosgorsud-torrent[собачка]yandex.ru