Оценка торрента
5 0%  0%  [ 0 ]
4 0%  0%  [ 0 ]
3 0%  0%  [ 0 ]
2 0%  0%  [ 0 ]
1 0%  0%  [ 0 ]
Всего голосов : 0
Торрент файл
скачать торрент магнет ссылка Добавлен: 13 июн 2011, 15:37
Размер: 1.46 ГБ
Сидеров: 11
Личеров: 8
Автор

СообщениеДобавлено: 01 июн 2011, 03:02 

Не в сети
Аватара пользователя
Дата регистрации:
14 мар 2011, 17:24
Возраст: 31
Спасибо: 14 / 8
Сообщения: 38
Откуда: 9CaraTT.COM
В чужом ряду / Changing Lanes


Страна: США
Жанр: Триллер, драма
Год выпуска: 2002
Продолжительность: 01:38:44
Перевод: Профессиональный (полное дублирование)
Субтитры: Отсутствуют
Режиссёр: Роджер Мичелл / Roger Michell

Cлоган: «Один неверный поворот влечет за собой другие...»

В ролях: Бен Аффлек, Сэмюэл Л. Джексон, Ким Стонтон, Тони Коллетт, Сидни Поллак, Тина Слоун, Ричард Дженкинс, Акил Уолкер, Коул Хоукинс, Айлин Гетз.

Сюжет фильма: Гэвин Банек — энергичный молодой человек, работающий юристом в фирме своего тестя на Уолл Стрит. Дойл Гипсон — представитель страховой компании, возвращающийся к нормальной жизни после алкоголизма. Его жена развелась с ним, и теперь планирует перебраться из Нью-Йорка в Портланд вместе с двумя их детьми.
Нью-Йорк, Пятница. Гипсон торопится в суд, чтобы отстоять там право видеться со своими сыновьями. Банек же едет на своем Мерседесе в суд, чтобы заверить одно многомиллионное завещание. Машины Банека и Гипсона оказываются в соседних рядах на дороге. Гипсон слишком занят обдумыванием своей речи в суде, а Банека отвлекает звонок по мобильному телефону. Они не замечают машин друг друга, один неверный поворот, и вот уже Банек и Гипсон — виновники дорожно-транспортного происшествия.
Жертв нет, однако ссора этих двух совершенно разных людей будет иметь большие последствия для каждого из них. Этот случай на дороге заставит двух незнакомцев развязать войну друг против друга. Со звериной ожесточенностью они будут пытаться отомстить друг другу, а гнев приведет каждого из них к краю самоуничтожения…

Рейтинг Кинопоиск.RU:7.186
Рейтинг IMDB:6.5/10
Рейтинг MPAA:R

Качество: HDRip
Формат файла: AVI
Аудио кодек: AC3
Видео кодек: XviD
Видео: 720x304 (2.37:1), 23.976 fps, XviD build 50 ~1660 kbps avg, 0.32 bit/pixel
Аудио: 48 kHz, AC3 Dolby Digital, 3/2 (L,C,R,l,r) + LFE ch, 448.00 kbps avg

Полное имя : D:\Фильмы\My rip\Changing_Lanes.avi
Формат : AVI
Формат/Информация : Audio Video Interleave
Размер файла : 1,46 Гбайт
Продолжительность : 1 ч. 38 м.
Общий поток : 2117 Кбит/сек
Программа кодирования : VirtualDubModRus 1.5.10.2 (build 2542/release)
Библиотека кодирования : VirtualDubMod build 2542/release

Видео
Идентификатор : 0
Формат : MPEG-4 Visual
Профиль формата : Advanced Simple@L5
Параметр BVOP формата : 1
Параметр QPel формата : Нет
Параметр GMC формата : Без точки перехода
Параметр матрицы формата : Выборочная
Идентификатор кодека : XVID
Идентификатор кодека/Подсказка : XviD
Продолжительность : 1 ч. 38 м.
Битрейт : 1660 Кбит/сек
Ширина : 720 пикс.
Высота : 304 пикс.
Соотношение сторон : 2,35:1
Частота кадров : 23,976 кадр/сек
Цветовое пространство : YUV
Подвыборка цветности : 4:2:0
Битовая глубина : 8 бит
Тип развёртки : Прогрессивная
Метод сжатия : С потерями
Бит/(Пиксели*Кадры) : 0.316
Размер потока : 1,14 Гбайт (78%)
Библиотека кодирования : XviD 1.2.1 (UTC 2008-12-04)

Аудио
Идентификатор : 1
Формат : AC-3
Формат/Информация : Audio Coding 3
Расширение режима : CM (complete main)
Идентификатор кодека : 2000
Продолжительность : 1 ч. 38 м.
Вид битрейта : Постоянный
Битрейт : 448 Кбит/сек
Канал(ы) : 6 канала(ов)
Расположение каналов : Front: L C R, Side: L R, LFE
Частота : 48,0 КГц
Битовая глубина : 16 бит
Метод сжатия : С потерями
Размер потока : 316 Мбайт (21%)
Выравнивание : Разделение по промежуткам
Продолжительность промежутка : 42 мс. (1,00 видеокадр)
Время предзагрузки промежутка : 500 ms
  • На следующий день после террористических атак 11 сентября 2001 года режиссёр Роджер Мичелл импульсивно удалил с помощью компьютерной графики из начальных кадров фильма появляющиеся там башни-близнецы. Позднее он понял ошибочность своего решения и во время перемонтажа восстановил первоначальный вид.
  • Сценарист Дэниел Пайн поучаствовал в работе над проектом, но так и не удостоился упоминания в титрах.
    Режиссёр Роджер Мичелл лично посетил несколько собраний общества анонимных алкоголиков с тем, чтобы получить общие впечатления того, как подобная сцена с участием Сэмюэла Джексона должна выглядеть на экране.
  • Фиолетовая шляпа Сэмюэла Джексона была полностью выбором самого актёра. Примечательно, что его персонажи в различных фильмах довольно часто носят одежду этого цвета или имеют дело с теми или иными фиолетовыми предметами.
  • Во время съёмочного процесса Бен Аффлек был срочно отозван на несколько дней для внезапно потребовавшихся пересъёмок отдельных сцен «Пёрл-Харбора» (2001).
  • Сцена дорожной аварии была снята в течение двух дней на шоссе FDR Highway рядом с Нью-Йорком, которое на это время было перекрыто для обычного трафика.
Rip от:




реклама партнёра


Вернуться к началу
 Профиль Отправить личное сообщение  
 
   Похожие торренты   Автор   Торрент   Размер 
В этой теме нет новых непрочитанных сообщений. В чужом ряду / Changing Lanes [триллер, драма, 2002] BDRip 1080p, Dub+Mvo+Sub

salma3

13 | 4

7.76 ГБ

В этой теме нет новых непрочитанных сообщений. Любимец женщин / Roger Dodger [драма, комедия, 2002] BDRip, Dvo

salma3

27 | 3

1.85 ГБ

В этой теме нет новых непрочитанных сообщений. Любимец женщин / Roger Dodger [драма, комедия, 2002] BDRip 1080p, Dvo

salma3

126 | 26

12.19 ГБ

В этой теме нет новых непрочитанных сообщений. Убийство в чужом городе / Picture Claire [триллер, 2001] DVDRip, Mvo

salma3

5 | 5

1.46 ГБ

В этой теме нет новых непрочитанных сообщений. Любовь, сбивающая с ног / Punch-Drunk Love [триллер, драма, мелодрама, комедия, 2002] HDRip, Dvo

salma3

0 | 0

1.45 ГБ

В этой теме нет новых непрочитанных сообщений. Saw Cross Lanes - Awaken from a sleepless dream [2011, Metalcore, MP3]

PriZraK

0 | 1

46.02 МБ

В этой теме нет новых непрочитанных сообщений. Jack White And The Bricks - Live On the Garden Bowl Lanes: July 9, 1999 [2013, Alt. Rock, MP3]

PriZraK

0 | 2

64.85 МБ


СообщениеДобавлено: 13 июн 2011, 15:38 

Не в сети
Аватара пользователя
Дата регистрации:
14 мар 2011, 17:24
Возраст: 31
Спасибо: 14 / 8
Сообщения: 38
Откуда: 9CaraTT.COM
Перезалил торрент, где сидов побольше ;)


Вернуться к началу
 Профиль Отправить личное сообщение  
 
Начать новую тему Ответить на тему  [ Сообщений: 2 ] 




Для Мосгорсуда, Роскомнадзора и рекламодателей:: mosgorsud-torrent[собачка]yandex.ru