COVID-19 - Последняя информация о коронавирусе на сайте Минздрава




Торрент файл
скачать торрент магнет ссылка Добавлен: 22 май 2021, 17:17
Размер: 4.57 ГБ
Сидеров: 0
Личеров: 1
Автор

СообщениеДобавлено: 22 май 2021, 17:17 

Не в сети
Дата регистрации:
25 июл 2019, 06:17
Спасибо: 38 / 2
Сообщения: 1755
Информация о видео
Название: ВАЛЛ·И
Оригинальное название: WALL·E
Год выхода: 2008
Жанр: мультфильм, фантастика, приключения, семейный
Режиссер: Эндрю Стэнтон
В ролях: Бен Бертт, Элисса Найт, Джефф Гарлин, Фред Уиллард, Джон Ратценбергер, Кэти Нэджими, Сигурни Уивер, Ники МакЭлрой, Гаррет Палмер, Кай Стил Смит

Описание: Робот ВАЛЛ·И из года в год прилежно трудится на опустевшей Земле, очищая нашу планету от гор мусора, которые оставили после себя улетевшие в космос люди. Он и не представляет, что совсем скоро произойдут невероятные события, благодаря которым он встретит друзей, поднимется к звездам и даже сумеет изменить к лучшему своих бывших хозяев, совсем позабывших родную Землю.

Выпущено: США / Pixar Animation Studios, Walt Disney Pictures
Продолжительность: 01:38:42
Перевод: Дублированный



Файл
Формат: MKV
Качество: BDRip-HEVC 1080p
Видео : HEVC/H.265, 1920x804, 23.976fps, 4961 Kb/s
Аудио 1: 48KHz, AC3, 6ch, 640 Kb/s | Русский ублированный
Аудио 2: 48KHz, AC3, 6ch, 384 Kb/s | Украинский дублированный
Аудио 3: 48KHz, AC3, 6ch, 640 Kb/s | Английский
Субтитры: Русские (форсированные, полные), украинские (форсированные, полные), английские (полные, SDH)

Скриншоты:


==============================
x265 [info]: frame I: Avg QP:14.92 kb/s
x265 [info]: frame P: Avg QP:16.64 kb/s
x265 [info]: frame B: Avg QP:19.17 kb/s
==============================
Общее
Уникальный идентификатор : 99854525981562712798490911579649820027 (0x4B1F483C19854306813E4ED3C1DF457B)
Полное имя : R:WALL-E (2008) BDRip-HEVC 1080p.mkv
Формат : Matroska
Версия формата : Version 4 / Version 2
Размер файла : 4,57 Гбайт
Продолжительность : 1 ч. 38 м.
Общий поток : 6628 Кбит/сек
Название фильма : WALL-E (2008)
Дата кодирования : UTC 2020-06-30 15:14:45
Программа кодирования : mkvmerge v47.0.0 ('Black Flag') 64-bit
Библиотека кодирования : libebml v1.3.10 + libmatroska v1.5.2
Обложка : Yes
Attachments : cover.jpg

Видео
Идентификатор : 1
Формат : HEVC
Формат/Информация : High Efficiency Video Coding
Профиль формата : Main 10@L4.1@High
Идентификатор кодека : V_MPEGH/ISO/HEVC
Продолжительность : 1 ч. 38 м.
Битрейт : 4961 Кбит/сек
Ширина : 1920 пикселей
Высота : 804 пикселя
Соотношение сторон : 2,40:1
Режим частоты кадров : Постоянный
Частота кадров : 23,976 (23976/1000) кадра/сек
Частота кадров в оригинале : 23,976 (24000/1001) кадра/сек
Цветовое пространство : YUV
Субдискретизация насыщенности : 4:2:0
Битовая глубина : 10 бит
Бит/(Пиксели*Кадры) : 0.134
Размер потока : 3,42 Гбайт (75%)
Библиотека кодирования : x265 3.3+1-g554c887ac:[Windows][MSVC 1924][64 bit] 10bit
Настройки программы : cpuid=1111039 / frame-threads=3 / numa-pools=12 / wpp / no-pmode / no-pme / no-psnr / no-ssim / log-level=2 / input-csp=1 / input-res=1920x804 / interlace=0 / total-frames=141986 / level-idc=41 / high-tier=1 / uhd-bd=0 / ref=5 / no-allow-non-conformance / no-repeat-headers / annexb / no-aud / no-hrd / info / hash=0 / no-temporal-layers / open-gop / min-keyint=23 / keyint=240 / gop-lookahead=0 / bframes=16 / b-adapt=2 / b-pyramid / bframe-bias=0 / rc-lookahead=60 / lookahead-slices=4 / scenecut=40 / hist-scenecut=0 / radl=0 / no-splice / no-intra-refresh / ctu=32 / min-cu-size=8 / rect / amp / max-tu-size=32 / tu-inter-depth=4 / tu-intra-depth=4 / limit-tu=1 / rdoq-level=2 / dynamic-rd=0.00 / no-ssim-rd / signhide / no-tskip / nr-intra=0 / nr-inter=0 / no-constrained-intra / no-strong-intra-smoothing / max-merge=4 / limit-refs=2 / limit-modes / me=3 / subme=7 / merange=57 / temporal-mvp / no-frame-dup / no-hme / weightp / weightb / no-analyze-src-pics / deblock=-3:-3 / no-sao / no-sao-non-deblock / rd=6 / selective-sao=0 / no-early-skip / no-rskip / no-fast-intra / no-tskip-fast / no-cu-lossless / no-b-intra / no-splitrd-skip / rdpenalty=0 / psy-rd=2.00 / psy-rdoq=1.00 / no-rd-refine / no-lossless / cbqpoffs=0 / crqpoffs=0 / rc=crf / crf=19.0 / qcomp=0.60 / qpstep=4 / stats-write=0 / stats-read=0 / vbv-maxrate=50000 / vbv-bufsize=50000 / vbv-init=0.9 / crf-max=0.0 / crf-min=0.0 / ipratio=1.40 / pbratio=1.30 / aq-mode=1 / aq-strength=1.00 / no-cutree / zone-count=0 / no-strict-cbr / qg-size=32 / no-rc-grain / qpmax=69 / qpmin=0 / no-const-vbv / sar=1 / overscan=0 / videoformat=5 / range=0 / colorprim=1 / transfer=1 / colormatrix=1 / chromaloc=0 / display-window=0 / cll=0,0 / min-luma=0 / max-luma=1023 / log2-max-poc-lsb=8 / vui-timing-info / vui-hrd-info / slices=1 / no-opt-qp-pps / no-opt-ref-list-length-pps / no-multi-pass-opt-rps / scenecut-bias=0.05 / hist-threshold=0.01 / no-opt-cu-delta-qp / no-aq-motion / no-hdr10 / no-hdr10-opt / no-dhdr10-opt / no-idr-recovery-sei / analysis-reuse-level=0 / analysis-save-reuse-level=0 / analysis-load-reuse-level=0 / scale-factor=0 / refine-intra=0 / refine-inter=0 / refine-mv=1 / refine-ctu-distortion=0 / no-limit-sao / ctu-info=0 / no-lowpass-dct / refine-analysis-type=0 / copy-pic=1 / max-ausize-factor=1.0 / no-dynamic-refine / no-single-sei / no-hevc-aq / no-svt / no-field / qp-adaptation-range=1.00 / no-scenecut-aware-qpconformance-window-offsets / right=0 / bottom=0
Default : Да
Forced : Нет
Цветовой диапазон : Limited
Основные цвета : BT.709
Характеристики трансфера : BT.709
Коэффициенты матрицы : BT.709

Аудио #1
Идентификатор : 2
Формат : AC-3
Формат/Информация : Audio Coding 3
Идентификатор кодека : A_AC3
Продолжительность : 1 ч. 38 м.
Вид битрейта : Постоянный
Битрейт : 640 Кбит/сек
Каналы : 6 каналов
Расположение каналов : Front: L C R, Side: L R, LFE
Частота : 48,0 КГц
Частота кадров : 31,250 кадров/сек (1536 SPF)
Битовая глубина : 16 бит
Метод сжатия : С потерями
Размер потока : 452 Мбайт (10%)
Заголовок : Dub
Язык : Russian
ServiceKind/Strin : Complete Main
Default : Нет
Forced : Нет

Аудио #2
Идентификатор : 3
Формат : AC-3
Формат/Информация : Audio Coding 3
Идентификатор кодека : A_AC3
Продолжительность : 1 ч. 38 м.
Вид битрейта : Постоянный
Битрейт : 384 Кбит/сек
Каналы : 6 каналов
Расположение каналов : Front: L C R, Side: L R, LFE
Частота : 48,0 КГц
Частота кадров : 31,250 кадров/сек (1536 SPF)
Битовая глубина : 16 бит
Метод сжатия : С потерями
Размер потока : 271 Мбайт (6%)
Заголовок : dub
Язык : Ukrainian
ServiceKind/Strin : Complete Main
Default : Нет
Forced : Нет

Аудио #3
Идентификатор : 4
Формат : AC-3
Формат/Информация : Audio Coding 3
Идентификатор кодека : A_AC3
Продолжительность : 1 ч. 38 м.
Вид битрейта : Постоянный
Битрейт : 640 Кбит/сек
Каналы : 6 каналов
Расположение каналов : Front: L C R, Side: L R, LFE
Частота : 48,0 КГц
Частота кадров : 31,250 кадров/сек (1536 SPF)
Битовая глубина : 16 бит
Метод сжатия : С потерями
Размер потока : 452 Мбайт (10%)
Заголовок : Original
Язык : English
ServiceKind/Strin : Complete Main
Default : Нет
Forced : Нет

Текст #1
Идентификатор : 5
Формат : UTF-8
Идентификатор кодека : S_TEXT/UTF8
Идентификатор кодека/Информация : UTF-8 Plain Text
Продолжительность : 1 ч. 26 м.
Битрейт : 35 бит/сек
ElementCount : 507
Размер потока : 22,6 Кбайт (0%)
Заголовок : Full
Язык : Russian
Default : Нет
Forced : Нет

Текст #2
Идентификатор : 6
Формат : UTF-8
Идентификатор кодека : S_TEXT/UTF8
Идентификатор кодека/Информация : UTF-8 Plain Text
Продолжительность : 1 ч. 23 м.
Битрейт : 1 бит/сек
ElementCount : 18
Размер потока : 889 байт (0%)
Заголовок : Forced
Язык : Russian
Default : Нет
Forced : Нет

Текст #3
Идентификатор : 7
Формат : UTF-8
Идентификатор кодека : S_TEXT/UTF8
Идентификатор кодека/Информация : UTF-8 Plain Text
Продолжительность : 1 ч. 27 м.
Битрейт : 35 бит/сек
ElementCount : 519
Размер потока : 22,7 Кбайт (0%)
Заголовок : Full
Язык : Ukrainian
Default : Нет
Forced : Нет

Текст #4
Идентификатор : 8
Формат : UTF-8
Идентификатор кодека : S_TEXT/UTF8
Идентификатор кодека/Информация : UTF-8 Plain Text
Продолжительность : 1 ч. 24 м.
Битрейт : 2 бит/сек
ElementCount : 31
Размер потока : 1,41 Кбайт (0%)
Заголовок : Forced
Язык : Ukrainian
Default : Нет
Forced : Нет

Текст #5
Идентификатор : 9
Формат : UTF-8
Идентификатор кодека : S_TEXT/UTF8
Идентификатор кодека/Информация : UTF-8 Plain Text
Продолжительность : 1 ч. 25 м.
Битрейт : 21 бит/сек
ElementCount : 484
Размер потока : 13,3 Кбайт (0%)
Заголовок : Full
Язык : English
Default : Нет
Forced : Нет

Текст #6
Идентификатор : 10
Формат : UTF-8
Идентификатор кодека : S_TEXT/UTF8
Идентификатор кодека/Информация : UTF-8 Plain Text
Продолжительность : 1 ч. 35 м.
Битрейт : 44 бит/сек
ElementCount : 1362
Размер потока : 31,0 Кбайт (0%)
Заголовок : Full SDH
Язык : English
Default : Нет
Forced : Нет

Меню
00:00:00.000 : :Chapter 01
00:03:36.299 : :Chapter 02
00:05:49.682 : :Chapter 03
00:09:18.766 : :Chapter 04
00:12:03.430 : :Chapter 05
00:17:56.450 : :Chapter 06
00:19:33.380 : :Chapter 07
00:21:10.143 : :Chapter 08
00:23:46.800 : :Chapter 09
00:29:18.006 : :Chapter 10
00:31:25.091 : :Chapter 11
00:33:27.755 : :Chapter 12
00:35:20.117 : :Chapter 13
00:38:49.535 : :Chapter 14
00:42:53.529 : :Chapter 15
00:43:31.650 : :Chapter 16
00:51:08.940 : :Chapter 17
00:52:07.582 : :Chapter 18
00:54:47.450 : :Chapter 19
00:56:05.778 : :Chapter 20
00:57:58.016 : :Chapter 21
00:58:41.184 : :Chapter 22
01:02:14.897 : :Chapter 23
01:03:21.047 : :Chapter 24
01:05:49.695 : :Chapter 25
01:11:44.883 : :Chapter 26
01:15:54.215 : :Chapter 27
01:19:22.799 : :Chapter 28
01:20:14.684 : :Chapter 29
01:24:14.090 : :Chapter 30
01:25:45.765 : :Chapter 31
01:30:17.494 : :Chapter 32
01:38:41.748 : :Chapter 33



Скачать книги и аудио книги через торрент


Вернуться к началу
 Профиль Отправить личное сообщение  
 
   Похожие торренты   Автор   Торрент   Размер 
В этой теме нет новых непрочитанных сообщений. Центурион / Centurion [боевик, триллер, приключения, 2009] BDRip-HEVC 1080p, Dub [Локализованная версия]

salma3

5 | 0

10.13 ГБ

В этой теме нет новых непрочитанных сообщений. Мстители: Финал / Avengers: Endgame [Фантастика, боевик, приключения, 2019] WEBRip-HEVC 720p, Dub [iTunes] [Open Matte] [Локализованная версия]

salma3

0 | 0

4.25 ГБ

В этой теме нет новых непрочитанных сообщений. Хороший динозавр / The Good Dinosaur [мультфильм, фэнтези, драма, комедия, приключения, семейный, 2015] BDRip-HEVC 1080p, Dub [Лицензия]

K15

10 | 3

6.33 ГБ

В этой теме нет новых непрочитанных сообщений. Алита: Боевой ангел / Alita: Battle Angel [Фантастика, боевик, триллер, 2019] BDRip 1080p, Dub [Лицензия] [Локализованная версия]

salma3

0 | 0

7.76 ГБ

В этой теме нет новых непрочитанных сообщений. Алита: Боевой ангел / Alita: Battle Angel [Фантастика, боевик, триллер, 2019] BDRip 1080p, Dub [Лицензия] [60 fps] [Локализованная версия]

salma3

0 | 0

8.55 ГБ

В этой теме нет новых непрочитанных сообщений. Хеллбой / Hellboy [Фэнтези, боевик, приключения, 2019] BDRip, Dub [Лицензия] [Локализованная версия]

salma3

9 | 16

2.18 ГБ

В этой теме нет новых непрочитанных сообщений. Хеллбой / Hellboy [Фэнтези, боевик, приключения, 2019] BDRip, Dub [Лицензия] [Локализованная версия]

salma3

28 | 19

1.45 ГБ


Начать новую тему Ответить на тему  [ 1 сообщение ] 




Для Мосгорсуда, Роскомнадзора и рекламодателей:: rstracker[собака]yandex.ru
cron