COVID-19 - Последняя информация о коронавирусе на сайте Минздрава




Торрент файл
скачать торрент магнет ссылка Добавлен: 18 дек 2020, 19:05
Размер: 8.31 ГБ
Сидеров: 0
Личеров: 0
Автор

СообщениеДобавлено: 18 дек 2020, 19:05 

Не в сети
Дата регистрации:
25 июл 2019, 06:17
Спасибо: 31 / 2
Сообщения: 1209
Информация о мультфильме
Название: Тайная жизнь домашних животных 2
Оригинальное название: The Secret Life of Pets 2
Год выхода: 2019
Жанр: мультфильм, комедия, приключения, семейный
Режиссер: Крис Рено, Джонатан дель Валь
В ролях: Пэттон Освальт, Кевин Харт, Харрисон Форд, Эрик Стоунстрит, Дженни Слейт, Тиффани Хэддиш, Лэйк Белл, Дэна Карви, Бобби Мойнахан, Хэннибал Бёресс

Описание: Сюжет комедийного мультика расскажет о новых приключениях всем полюбившимся пушистых персонажей. Их тайная жизнь продолжает идти полным ходом - они весело проводят время играя с друзьями, общаются, проказничают и ходят в гости. Эта пестрая компания никогда не даст себе заскучать, постоянно придумывая себе очередные забавы. Однако на сей раз их беззаботное времяпрепровождение омрачается тревожной новостью. Главный герой - любознательный пес по кличке Макс обнаружил странное поведение у домашних животных, посещающих ветеринарную клинику доктора Френсиса. Тамошние звери начинают вести себя неадекватно и пугающе, проявляя необъяснимую агрессию после приема лекарств, предписанных коварным врачом.

Выпущено: США, Франция, Япония / Illumination Entertainment, Universal Pictures
Продолжительность: 01:26:03
Перевод: Дублированный + Профессиональный многоголосый



Файл
Формат: MKV
Качество: UHD BDRip-HEVC 2160p
Видео: HEVC/H.265, 3840x2076. 23.976fps, 9418 Kb/s
Звук: 48KHz, AC3, 6ch, 384 Kb/s - Русский дублированный
Звук: 48KHz, AC3, 2ch, 192 Kb/s - Русский многоголосый | HDRezka Studio
Звук: 48KHz, TrueHD Atmos, 8ch, 3318 Kb/s | Английский
Звук: 48KHz, AC3, 6ch, 640 Kb/s | Английский
Субтитры: Русские, английские

Скриншоты:


Формат : Matroska
Версия формата : Version 4
Размер файла : 8,31 Гбайт
Продолжительность : 1 ч. 26 м.
Режим общего битрейта : Переменный
Общий поток : 13,8 Мбит/сек
Название фильма : The.Secret.Life.of.Pets.2.2019.2160p.x265.10bit.HDR.Master5
Дата кодирования : UTC 2019-09-08 15:00:43
Программа кодирования : mkvmerge v7.9.0 ('Birds') 64bit
Библиотека кодирования : libebml v1.3.1 + libmatroska v1.4.2
Обложка : Yes
Attachments : cover_land.jpg / small_cover.jpg / small_cover_land.jpg / cover.jpg

Видео
Идентификатор : 1
Формат : HEVC
Формат/Информация : High Efficiency Video Coding
Коммерческое название : HDR10
Профиль формата : Main 10@L5.1@High
Идентификатор кодека : V_MPEGH/ISO/HEVC
Продолжительность : 1 ч. 26 м.
Битрейт : 9418 Кбит/сек
Ширина : 3840 пикселей
Высота : 2076 пикселей
Соотношение сторон : 1,85:1
Режим частоты кадров : Постоянный
Частота кадров : 23,976 (24000/1001) кадра/сек
Цветовое пространство : YUV
Субдискретизация насыщенности : 4:2:0 (Type 2)
Битовая глубина : 10 бит
Бит/(Пиксели*Кадры) : 0.049
Размер потока : 5,66 Гбайт (68%)
Заголовок : The.Secret.Life.of.Pets.2.2019.2160p.x265.10bit.HDR.Master5
Библиотека кодирования : x265 3.0_Au+10-74a8672ea4f7:[Windows][GCC 8.2.1][64 bit] 10bit
Настройки программы : cpuid=1111039 / frame-threads=16 / numa-pools=24,24,24,24 / wpp / no-pmode / no-pme / no-psnr / no-ssim / log-level=2 / input-csp=1 / input-res=3840x2076 / interlace=0 / total-frames=0 / level-idc=51 / high-tier=1 / uhd-bd=0 / ref=3 / no-allow-non-conformance / repeat-headers / annexb / aud / hrd / info / hash=0 / no-temporal-layers / no-open-gop / min-keyint=1 / keyint=24 / gop-lookahead=0 / bframes=6 / b-adapt=2 / b-pyramid / bframe-bias=0 / rc-lookahead=25 / lookahead-slices=4 / scenecut=40 / radl=0 / no-splice / no-intra-refresh / ctu=64 / min-cu-size=8 / no-rect / no-amp / max-tu-size=32 / tu-inter-depth=1 / tu-intra-depth=1 / limit-tu=0 / rdoq-level=0 / dynamic-rd=0.00 / no-ssim-rd / signhide / no-tskip / nr-intra=0 / nr-inter=0 / no-constrained-intra / strong-intra-smoothing / max-merge=2 / limit-refs=3 / no-limit-modes / me=1 / subme=2 / merange=57 / temporal-mvp / weightp / no-weightb / no-analyze-src-pics / deblock=1:1 / no-sao / no-sao-non-deblock / rd=3 / no-early-skip / rskip / no-fast-intra / no-tskip-fast / no-cu-lossless / no-b-intra / no-splitrd-skip / rdpenalty=0 / psy-rd=0.40 / psy-rdoq=0.00 / no-rd-refine / no-lossless / cbqpoffs=0 / crqpoffs=0 / rc=crf / crf=12.0 / qcomp=0.60 / qpstep=4 / stats-write=0 / stats-read=0 / vbv-maxrate=160000 / vbv-bufsize=160000 / vbv-init=0.9 / crf-max=0.0 / crf-min=0.0 / ipratio=1.40 / pbratio=1.30 / aq-mode=1 / aq-strength=0.40 / cutree / zone-count=0 / no-strict-cbr / qg-size=32 / no-rc-grain / qpmax=69 / qpmin=0 / no-const-vbv / sar=1 / overscan=0 / videoformat=5 / range=0 / colorprim=9 / transfer=16 / colormatrix=9 / chromaloc=1 / chromaloc-top=2 / chromaloc-bottom=2 / display-window=0 / master-display=G(13250,34500)B(7500,3000)R(34000,16000)WP(15635,16450)L(10000000,01) / max-cll=1000,412 / min-luma=0 / max-luma=1023 / log2-max-poc-lsb=8 / vui-timing-info / vui-hrd-info / slices=1 / opt-qp-pps / opt-ref-list-length-pps / no-multi-pass-opt-rps / scenecut-bias=0.05 / no-opt-cu-delta-qp / no-aq-motion / hdr / hdr-opt / no-dhdr10-opt / no-idr-recovery-sei / analysis-reuse-level=5 / scale-factor=0 / refine-intra=0 / refine-inter=0 / refine-mv=0 / refine-ctu-distortion=0 / no-limit-sao / ctu-info=0 / no-lowpass-dct / refine-analysis-type=-6419504 / copy-pic=1 / max-ausize-factor=1.0 / no-dynamic-refine / no-single-sei / no-hevc-aq / no-svt / qp-adaptation-range=1.00
Default : Да
Forced : Нет
Цветовой диапазон : Limited
Основные цвета : BT.2020
Характеристики трансфера : PQ
Коэффициенты матрицы : BT.2020 non-constant
MasteringDisplay_ColorPrimaries : Display P3
MasteringDisplay_Luminance : min: 0.0001 cd/m2, max: 1000 cd/m2
MaxCLL : 1000 cd/m2
MaxFALL : 412 cd/m2

Аудио #1
Идентификатор : 2
Формат : AC-3
Формат/Информация : Audio Coding 3
Коммерческое название : Dolby Digital
Идентификатор кодека : A_AC3
Продолжительность : 1 ч. 26 м.
Вид битрейта : Постоянный
Битрейт : 384 Кбит/сек
Каналы : 6 каналов
Channel layout : L R C LFE Ls Rs
Частота : 48,0 КГц
Частота кадров : 31,250 кадров/сек (1536 SPF)
Битовая глубина : 16 бит
Метод сжатия : С потерями
Размер потока : 236 Мбайт (3%)
Заголовок : iTunes
Язык : Russian
ServiceKind/String : Complete Main
Default : Да
Forced : Да

Аудио #2
Идентификатор : 3
Формат : AC-3
Формат/Информация : Audio Coding 3
Коммерческое название : Dolby Digital
Идентификатор кодека : A_AC3
Продолжительность : 1 ч. 26 м.
Вид битрейта : Постоянный
Битрейт : 192 Кбит/сек
Каналы : 2 канала
Channel layout : L R
Частота : 48,0 КГц
Частота кадров : 31,250 кадров/сек (1536 SPF)
Битовая глубина : 16 бит
Метод сжатия : С потерями
Размер потока : 118 Мбайт (1%)
Заголовок : MVO HDRezka Studio
Язык : Russian
ServiceKind/String : Complete Main
Default : Нет
Forced : Нет

Аудио #3
Идентификатор : 4
Формат : MLP FBA 16-ch
Формат/Информация : Meridian Lossless Packing FBA with 16-channel presentation
Коммерческое название : Dolby TrueHD with Dolby Atmos
Идентификатор кодека : A_TRUEHD
Продолжительность : 1 ч. 26 м.
Вид битрейта : Переменный
Битрейт : 3318 Кбит/сек
Максимальный битрейт : 4644 Кбит/сек
Каналы : 8 каналов
Channel layout : L R C LFE Ls Rs Lb Rb
Частота : 48,0 КГц
Частота кадров : 1200,000 кадров/сек (40 SPF)
Метод сжатия : Без потерь
Размер потока : 1,99 Гбайт (24%)
Заголовок : Original
Язык : English
Default : Нет
Forced : Нет
Number of dynamic objects : 11
Bed channel count : 1 канал
Bed channel configuration : LFE

Аудио #4
Идентификатор : 5
Формат : AC-3
Формат/Информация : Audio Coding 3
Коммерческое название : Dolby Digital
Идентификатор кодека : A_AC3
Продолжительность : 1 ч. 26 м.
Вид битрейта : Постоянный
Битрейт : 448 Кбит/сек
Каналы : 6 каналов
Channel layout : L R C LFE Ls Rs
Частота : 48,0 КГц
Частота кадров : 31,250 кадров/сек (1536 SPF)
Битовая глубина : 16 бит
Метод сжатия : С потерями
Размер потока : 276 Мбайт (3%)
Язык : English
ServiceKind/String : Complete Main
Default : Нет
Forced : Нет

Текст #1
Идентификатор : 6
Формат : UTF-8
Идентификатор кодека : S_TEXT/UTF8
Идентификатор кодека/Информация : UTF-8 Plain Text
Продолжительность : 1 ч. 25 м.
Битрейт : 74 бит/сек
ElementCount : 1157
Размер потока : 46,9 Кбайт (0%)
Заголовок : Full
Язык : Russian
Default : Нет
Forced : Нет

Текст #2
Идентификатор : 7
Формат : UTF-8
Идентификатор кодека : S_TEXT/UTF8
Идентификатор кодека/Информация : UTF-8 Plain Text
Продолжительность : 1 ч. 25 м.
Битрейт : 53 бит/сек
ElementCount : 1324
Размер потока : 33,3 Кбайт (0%)
Заголовок : Full
Язык : English
Default : Нет
Forced : Нет

Меню
00:00:00.000 : :Chapter 01
00:05:35.209 : :Chapter 02
00:10:08.482 : :Chapter 03
00:13:26.972 : :Chapter 04
00:16:40.457 : :Chapter 05
00:19:57.613 : :Chapter 06
00:24:10.740 : :Chapter 07
00:28:16.403 : :Chapter 08
00:30:54.936 : :Chapter 09
00:35:15.780 : :Chapter 10
00:39:56.644 : :Chapter 11
00:45:47.995 : :Chapter 12
00:49:52.489 : :Chapter 13
00:56:55.662 : :Chapter 14
00:58:35.887 : :Chapter 15
01:02:49.599 : :Chapter 16
01:07:17.283 : :Chapter 17
01:12:49.490 : :Chapter 18
01:15:22.476 : :Chapter 19
01:18:10.686 : :Chapter 20



Скачать книги и аудио книги через торрент


Вернуться к началу
 Профиль Отправить личное сообщение  
 
   Похожие торренты   Автор   Торрент   Размер 
В этой теме нет новых непрочитанных сообщений. Тайная жизнь домашних животных 2 / The Secret Life of Pets 2 [Мультфильм, комедия, приключения, 2019] UHD BDRip-HEVC 2160p, Dub [iTunes] [4K]

salma3

17 | 4

16.78 ГБ

В этой теме нет новых непрочитанных сообщений. Тайная жизнь домашних животных 2 / The Secret Life of Pets 2 [Мультфильм, комедия, приключения, 2019] UHD BDRip-HEVC 2160p, Dub [iTunes] [4K]

salma3

41 | 7

8.44 ГБ

В этой теме нет новых непрочитанных сообщений. Тайная жизнь домашних животных 2 / The Secret Life of Pets 2 [Мультфильм, комедия, приключения, 2019] UHD BDRemux 2160p, Dub [Лицензия] [4K]

salma3

0 | 0

38.53 ГБ

В этой теме нет новых непрочитанных сообщений. Тайная жизнь домашних животных 2 / The Secret Life of Pets 2 [Мультфильм, комедия, приключения, 2019] BDRip, Dub [Лицензия]

salma3

2 | 2

1.46 ГБ

В этой теме нет новых непрочитанных сообщений. Тайная жизнь домашних животных 2 / The Secret Life of Pets 2 [Мультфильм, комедия, приключения, 2019] BDRip 720p, Dub [Лицензия]

salma3

0 | 5

4.91 ГБ

В этой теме нет новых непрочитанных сообщений. Тайная жизнь домашних животных 2 / The Secret Life of Pets 2 [Мультфильм, комедия, приключения, 2019] BDRip 1080p, Dub [Лицензия]

salma3

1 | 4

8.81 ГБ

В этой теме нет новых непрочитанных сообщений. Тайная жизнь домашних животных 2 / The Secret Life of Pets 2 [мультфильм, комедия, приключения, 2019] Blu-ray EUR 1080p, Dub [Лицензия]

salma3

0 | 0

42.24 ГБ


Начать новую тему Ответить на тему  [ 1 сообщение ] 




Для Мосгорсуда, Роскомнадзора и рекламодателей:: rstracker[собака]yandex.ru
cron