Торрент файл
скачать торрент магнет ссылка Добавлен: 13 дек 2020, 21:58
Размер: 4.91 ГБ
Сидеров: 0
Личеров: 0
Автор

СообщениеДобавлено: 13 дек 2020, 21:58 

Не в сети
Дата регистрации:
25 июл 2019, 06:17
Спасибо: 51 / 2
Сообщения: 2907
Информация о мультфильме
Название: Суперсемейка
Оригинальное название: The Incredibles
Год выхода: 2004
Жанр: мультфильм, комедия, боевик, приключения, семейный
Режиссер: Брэд Бёрд

Описание: История семьи супергероев, члены которой уже отошли от больших дел и предпочитают жить непримечательной жизнью обычных землян. Они обладают сверхъестественными способностями и относительно легко справлялись с мировым злом. Но в один прекрасный день папаше и его домочадцам приходится вновь облачиться в прорезиненные костюмы супергероев (а для этого нужно срочно сбросить лишние килограммы) и в очередной раз спасти человечество от таинственного злодея.

Выпущено: США / Pixar Animation Studios, Walt Disney Pictures
Продолжительность: 01:55:25
Перевод: Дублированный | Лицензия



Файл
Формат: MKV
Качество: BDRip 1080p
Видео: HEVC/H.265, 23.976fps, 1920x804, 4802 Kb/s
Аудио 1: 48KHz, AC3, 6ch, 640 Kb/s | Русский
Аудио 2: 48KHz, AC3, 6ch, 640 Kb/s | Английский
Субтитры: Русские (форсированные, полные), английские

Скриншоты:


Формат : Matroska
Версия формата : Version 4 / Version 2
Размер файла : 4,91 Гбайт
Продолжительность : 1 ч. 55 м.
Общий поток : 6085 Кбит/сек
Название фильма : The Incredibles (2004)
Дата кодирования : UTC 2020-03-06 11:45:52
Программа кодирования : mkvmerge v43.0.0 ('The Quartermaster') 64-bit
Библиотека кодирования : libebml v1.3.10 + libmatroska v1.5.2
Обложка : Yes
Attachments : cover.jpg

Видео
Идентификатор : 1
Формат : HEVC
Формат/Информация : High Efficiency Video Coding
Профиль формата : Main 10@L4.1@High
Идентификатор кодека : V_MPEGH/ISO/HEVC
Продолжительность : 1 ч. 55 м.
Битрейт : 4802 Кбит/сек
Ширина : 1920 пикселей
Высота : 804 пикселя
Соотношение сторон : 2,40:1
Режим частоты кадров : Постоянный
Частота кадров : 23,976 (23976/1000) кадра/сек
Частота кадров в оригинале : 23,976 (24000/1001) кадра/сек
Цветовое пространство : YUV
Субдискретизация насыщенности : 4:2:0
Битовая глубина : 10 бит
Бит/(Пиксели*Кадры) : 0.130
Размер потока : 3,87 Гбайт (79%)
Библиотека кодирования : x265 3.2.1+1-b5c86a64bbbe:[Windows][MSVC 1923][64 bit] 10bit
Настройки программы : cpuid=1111039 / frame-threads=3 / numa-pools=12 / wpp / no-pmode / no-pme / no-psnr / no-ssim / log-level=2 / input-csp=1 / input-res=1920x804 / interlace=0 / total-frames=166053 / level-idc=41 / high-tier=1 / uhd-bd=0 / ref=5 / no-allow-non-conformance / no-repeat-headers / annexb / no-aud / no-hrd / info / hash=0 / no-temporal-layers / open-gop / min-keyint=23 / keyint=240 / gop-lookahead=0 / bframes=12 / b-adapt=2 / b-pyramid / bframe-bias=0 / rc-lookahead=60 / lookahead-slices=4 / scenecut=40 / radl=0 / no-splice / no-intra-refresh / ctu=32 / min-cu-size=8 / rect / amp / max-tu-size=32 / tu-inter-depth=4 / tu-intra-depth=4 / limit-tu=1 / rdoq-level=2 / dynamic-rd=0.00 / no-ssim-rd / signhide / no-tskip / nr-intra=0 / nr-inter=0 / no-constrained-intra / no-strong-intra-smoothing / max-merge=4 / limit-refs=2 / limit-modes / me=3 / subme=7 / merange=57 / temporal-mvp / no-hme / weightp / weightb / no-analyze-src-pics / deblock=-3:-3 / no-sao / no-sao-non-deblock / rd=6 / selective-sao=0 / no-early-skip / no-rskip / no-fast-intra / no-tskip-fast / no-cu-lossless / no-b-intra / no-splitrd-skip / rdpenalty=0 / psy-rd=2.00 / psy-rdoq=1.00 / no-rd-refine / no-lossless / cbqpoffs=0 / crqpoffs=0 / rc=crf / crf=19.0 / qcomp=0.60 / qpstep=4 / stats-write=0 / stats-read=0 / vbv-maxrate=50000 / vbv-bufsize=50000 / vbv-init=0.9 / crf-max=0.0 / crf-min=0.0 / ipratio=1.40 / pbratio=1.30 / aq-mode=1 / aq-strength=1.00 / no-cutree / zone-count=0 / no-strict-cbr / qg-size=32 / no-rc-grain / qpmax=69 / qpmin=0 / no-const-vbv / sar=1 / overscan=0 / videoformat=5 / range=0 / colorprim=1 / transfer=1 / colormatrix=1 / chromaloc=0 / display-window=0 / cll=0,0 / min-luma=0 / max-luma=1023 / log2-max-poc-lsb=8 / vui-timing-info / vui-hrd-info / slices=1 / no-opt-qp-pps / no-opt-ref-list-length-pps / no-multi-pass-opt-rps / scenecut-bias=0.05 / no-opt-cu-delta-qp / no-aq-motion / no-hdr / no-hdr-opt / no-dhdr10-opt / no-idr-recovery-sei / analysis-reuse-level=5 / scale-factor=0 / refine-intra=0 / refine-inter=0 / refine-mv=1 / refine-ctu-distortion=0 / no-limit-sao / ctu-info=0 / no-lowpass-dct / refine-analysis-type=0 / copy-pic=1 / max-ausize-factor=1.0 / no-dynamic-refine / no-single-sei / no-hevc-aq / no-svt / no-field / qp-adaptation-range=1.00
Default : Да
Forced : Нет
Цветовой диапазон : Limited
Основные цвета : BT.709
Характеристики трансфера : BT.709
Коэффициенты матрицы : BT.709

Аудио #1
Идентификатор : 2
Формат : AC-3
Формат/Информация : Audio Coding 3
Идентификатор кодека : A_AC3
Продолжительность : 1 ч. 55 м.
Вид битрейта : Постоянный
Битрейт : 640 Кбит/сек
Каналы : 6 каналов
Расположение каналов : Front: L C R, Side: L R, LFE
Частота : 48,0 КГц
Частота кадров : 31,250 кадров/сек (1536 SPF)
Битовая глубина : 16 бит
Метод сжатия : С потерями
Размер потока : 528 Мбайт (11%)
Заголовок : Дубляж
Язык : Russian
ServiceKind/Strin : Complete Main
Default : Да
Forced : Нет

Аудио #2
Идентификатор : 3
Формат : AC-3
Формат/Информация : Audio Coding 3
Идентификатор кодека : A_AC3
Продолжительность : 1 ч. 55 м.
Вид битрейта : Постоянный
Битрейт : 640 Кбит/сек
Каналы : 6 каналов
Расположение каналов : Front: L C R, Side: L R, LFE
Частота : 48,0 КГц
Частота кадров : 31,250 кадров/сек (1536 SPF)
Битовая глубина : 16 бит
Метод сжатия : С потерями
Размер потока : 528 Мбайт (11%)
Язык : English
ServiceKind/Strin : Complete Main
Default : Нет
Forced : Нет

Текст #1
Идентификатор : 4
Формат : UTF-8
Идентификатор кодека : S_TEXT/UTF8
Идентификатор кодека/Информация : UTF-8 Plain Text
Продолжительность : 1 ч. 46 м.
Битрейт : 0 бит/сек
ElementCount : 22
Размер потока : 631 байт (0%)
Заголовок : Форсированные
Язык : Russian
Default : Да
Forced : Нет

Текст #2
Идентификатор : 5
Формат : UTF-8
Идентификатор кодека : S_TEXT/UTF8
Идентификатор кодека/Информация : UTF-8 Plain Text
Продолжительность : 1 ч. 47 м.
Битрейт : 78 бит/сек
ElementCount : 1195
Размер потока : 61,3 Кбайт (0%)
Заголовок : Полные
Язык : Russian
Default : Нет
Forced : Нет

Текст #3
Идентификатор : 6
Формат : UTF-8
Идентификатор кодека : S_TEXT/UTF8
Идентификатор кодека/Информация : UTF-8 Plain Text
Продолжительность : 1 ч. 47 м.
Битрейт : 57 бит/сек
ElementCount : 1194
Размер потока : 45,5 Кбайт (0%)
Заголовок : Полные
Язык : English
Default : Нет
Forced : Нет

Меню
00:00:00.000 : en:1. Golden Age
00:09:14.554 : en:2. Weddings & Lawsuits
00:11:32.734 : en:3. 15 Years & 50 Pounds Later
00:13:31.352 : en:4. After School
00:17:08.527 : en:5. Family Dinner
00:20:44.910 : en:6. 2 Ex-Supers
00:26:53.529 : en:7. A Super Defeated
00:30:42.215 : en:8. Help Wanted
00:34:54.592 : en:9. Nomanisan
00:41:27.235 : en:10. New & Improved
00:46:01.675 : en:11. Helen Suspects
00:48:54.515 : en:12. Helen & E
00:50:02.124 : en:13. An Important Meeting
00:54:01.780 : en:14. E's Lab
00:57:09.551 : en:15. Secrets Revealed
01:00:35.799 : en:16. Suiting Up
01:05:04.859 : en:17. Missile Lock
01:10:53.708 : en:18. Out To Sea
01:12:57.915 : en:19. Good Guys/Bad Guys
01:16:27.583 : en:20. Elastigirl Returns
01:19:19.213 : en:21. Caves & Rockets
01:21:13.911 : en:22. Lost & Found
01:23:59.659 : en:23. 100 Mile Dash
01:27:05.637 : en:24. Reunited
01:30:29.841 : en:25. Bob's Confession
01:32:47.395 : en:26. Frozone & Honey
01:33:33.024 : en:27. Omnidroid Attacks
01:34:30.540 : en:28. Road Trip
01:37:03.151 : en:29. The Incredibles vs. The Omnidroid
01:41:58.070 : en:30. Past vs. Future
01:45:40.000 : en:31. Happy Endings
01:47:33.322 : en:32. End Credits



Вернуться к началу
 Профиль Отправить личное сообщение  
 
   Похожие торренты   Автор   Торрент   Размер 
В этой теме нет новых непрочитанных сообщений. Суперсемейка 2 / Incredibles 2 [Мультфильм, фантастика, боевик, 2018] BDRip 1080p, Dub [Лицензия] [3D-Video]

salma3

0 | 0

7.8 ГБ

В этой теме нет новых непрочитанных сообщений. Хороший динозавр / The Good Dinosaur [мультфильм, фэнтези, драма, комедия, приключения, семейный, 2015] BDRip-HEVC 1080p, Dub [Лицензия]

K15

10 | 3

6.33 ГБ

В этой теме нет новых непрочитанных сообщений. Братец медвежонок / Brother Bear [Мультфильм, приключения, семейный, 2003] BDRip-HEVC 1080p, Dub

salma3

0 | 0

3.59 ГБ

В этой теме нет новых непрочитанных сообщений. Земля до начала времен / The Land Before Time [Мультфильм, приключения, семейный, 1988] BDRip-HEVC 1080p, Dub

salma3

0 | 0

7.69 ГБ

В этой теме нет новых непрочитанных сообщений. Король Лев / The Lion King [Мультфильм, мюзикл, драма, приключения, семейный, 2019] BDRip-HEVC 1080p, Dub [iTunes]

K15

539 | 34

6.8 ГБ

В этой теме нет новых непрочитанных сообщений. ВАЛЛ·И / WALL·E (Эндрю Стэнтон) [2008 г., мультфильм, фантастика, приключения, семейный, BDRip-HEVC 1080p] | Dub | Лицензия | Локализованная версия

zorgi

0 | 1

4.57 ГБ

В этой теме нет новых непрочитанных сообщений. Королевский корги / The Queen's Corgi [мультфильм, комедия, семейный, 2019] BDRip-HEVC 1080p, Dub [iTunes]

salma3

0 | 0

5.37 ГБ


Начать новую тему Ответить на тему  [ 1 сообщение ] 




Для Мосгорсуда, Роскомнадзора и рекламодателей:: rstracker[собака]yandex.ru
cron