Торрент файл
скачать торрент магнет ссылка Добавлен: 22 апр 2020, 20:13
Размер: 1.46 ГБ
Сидеров: 0
Личеров: 0
Статус: (salma3)
Автор

СообщениеДобавлено: 22 апр 2020, 20:13 

Не в сети
Супермодератор
Аватара пользователя
Дата регистрации:
15 фев 2012, 16:44
Возраст: 33
Спасибо: 8325 / 2148
Сообщения: 97229
Год выхода: 2020
Жанр: Мультфильм, комедия, семейный
Режиссер: Крис Пирн, Кори Эванс, Роб Лодермайер

Роли озвучивают: Уилл Форте, Мартин Шорт, Алессия Кара, Джейн Краковски, Рики Джервэйс, Майя Рудольф, Терри Крюс, Шон Каллен, Брайан Драммонд, Бонни Райли

О фильме:
В семье Уиллоби дети решают отдохнуть от эгоистичных родителей, отправив их в отпуск.



Страна: Канада
Продолжительность: 01:32:17
Перевод: Профессиональный (полное дублирование) | Невафильм по заказу Netflix

Файл
Качество: WEB-DLRip-AVC
Формат: MKV
Кодек: MPEG-4 AVC
Видео: 1024x428 (2,40:1), 24 fps, MPEG-4 AVC ~ 1817 Kbps avg, 0.173 bit/pixel
Аудио: AC3, 48 kHz, 6 ch, ~448.00 kbps avg | русский | Невафильм
Субтитры: Русские (Forced, Full)

Общее
Уникальный идентификатор : 314004368062971664728731429558920539099 (0xEC3B0AA0893F43014807B6024C0DEBDB)
Полное имя : The.Willoughbys.2020.D.WEB-DLRip.1.46GB.x264.mkv
Формат : Matroska
Версия формата : Version 4
Размер файла : 1,46 Гбайт
Продолжительность : 1 ч. 32 м.
Общий поток : 2266 Кбит/сек
Название фильма : Семья Уиллоби / The Willoughbys (2020)
Дата кодирования : UTC 2020-04-22 14:46:32
Программа кодирования : mkvmerge v41.0.0 ('Smarra') 64-bit
Библиотека кодирования : libebml v1.3.9 + libmatroska v1.5.2
Обложка : Yes
Attachments : cover.jpg
Видео
Идентификатор : 1
Формат : AVC
Формат/Информация : Advanced Video Codec
Профиль формата : High@L4.1
Настройки формата : CABAC / 12 Ref Frames
Параметр CABAC формата : Да
Параметр RefFrames формата : 12 кадров
Идентификатор кодека : V_MPEG4/ISO/AVC
Продолжительность : 1 ч. 32 м.
Битрейт : 1817 Кбит/сек
Ширина : 1024 пикселя
Высота : 428 пикселей
Соотношение сторон : 2,40:1
Режим частоты кадров : Постоянный
Частота кадров : 24,000 кадра/сек
Цветовое пространство : YUV
Субдискретизация насыщенности : 4:2:0
Битовая глубина : 8 бит
Тип развёртки : Прогрессивная
Бит/(Пиксели*Кадры) : 0.173
Размер потока : 1,17 Гбайт (80%)
Заголовок : #stillet
Библиотека кодирования : x264 core 152 r2851bm ba24899
Настройки программы : cabac=1 / ref=12 / deblock=1:-3:-3 / analyse=0x3:0x113 / me=umh / subme=11 / psy=1 / psy_rd=1.00:0.15 / mixed_ref=1 / me_range=32 / chroma_me=1 / trellis=2 / 8x8dct=1 / cqm=0 / deadzone=21,11 / fast_pskip=0 / chroma_qp_offset=-3 / threads=8 / lookahead_threads=3 / sliced_threads=0 / nr=0 / decimate=0 / interlaced=0 / bluray_compat=0 / constrained_intra=0 / bframes=10 / b_pyramid=2 / b_adapt=2 / b_bias=0 / direct=3 / weightb=1 / open_gop=0 / weightp=2 / keyint=240 / keyint_min=23 / scenecut=40 / intra_refresh=0 / rc=2pass / mbtree=0 / bitrate=1817 / ratetol=1.0 / qcomp=0.60 / qpmin=0 / qpmax=69 / qpstep=4 / cplxblur=20.0 / qblur=0.5 / ip_ratio=1.40 / pb_ratio=1.30 / aq=1:1.00
Язык : English
Default : Да
Forced : Нет
Аудио
Идентификатор : 2
Формат : AC-3
Формат/Информация : Audio Coding 3
Коммерческое название : Dolby Digital
Идентификатор кодека : A_AC3
Продолжительность : 1 ч. 32 м.
Вид битрейта : Постоянный
Битрейт : 448 Кбит/сек
Каналы : 6 каналов
ChannelLayout : L R C LFE Ls Rs
Частота : 48,0 КГц
Частота кадров : 31,250 кадров/сек (1536 SPF)
Метод сжатия : С потерями
Размер потока : 296 Мбайт (20%)
Заголовок : Невафильм
Язык : Russian
Default : Да
Forced : Нет
Текст #1
Идентификатор : 3
Формат : UTF-8
Идентификатор кодека : S_TEXT/UTF8
Идентификатор кодека/Информация : UTF-8 Plain Text
Продолжительность : 1 ч. 30 м.
Битрейт : 1 бит/сек
ElementCount : 35
Размер потока : 1,27 Кбайт (0%)
Заголовок : Forced
Язык : Russian
Default : Да
Forced : Да
Текст #2
Идентификатор : 4
Формат : UTF-8
Идентификатор кодека : S_TEXT/UTF8
Идентификатор кодека/Информация : UTF-8 Plain Text
Продолжительность : 1 ч. 30 м.
Битрейт : 97 бит/сек
ElementCount : 1398
Размер потока : 64,9 Кбайт (0%)
Заголовок : Full
Язык : Russian
Default : Нет
Forced : Нет



_________________
Проголосуй за трекер Открытый торрент трекер - RUS-MEDIA.ORG

Проголосуй Открытый торрент трекер - RUS-MEDIA.ORG


Вернуться к началу
 Профиль Отправить личное сообщение  
 
   Похожие торренты   Автор   Торрент   Размер 
В этой теме нет новых непрочитанных сообщений. Главное событие / The Main Event [Боевик, комедия, семейный, 2020] WEB-DLRip, Dub [Невафильм]

salma3

0 | 0

2.18 ГБ

В этой теме нет новых непрочитанных сообщений. Кей Си. Под прикрытием / K.C. Undercover [S01] [Семейный, Приключения, Комедия, 2015] WEB-DLRip, Dub [Невафильм]

salma3

0 | 0

10 ГБ

В этой теме нет новых непрочитанных сообщений. Кей Си. Под прикрытием / K.C. Undercover [S02] [Семейный, Приключения, Комедия, 2016] WEB-DLRip, Dub [Невафильм]

salma3

1 | 1

8.92 ГБ

В этой теме нет новых непрочитанных сообщений. Вперёд / Onward [Мультфильм, фэнтези, комедия, 2020] WEB-DLRip, Dub [iTunes] [Локализованная версия]

salma3

0 | 0

1.46 ГБ

В этой теме нет новых непрочитанных сообщений. Спасатели Малибу: Новая волна / Malibu Rescue: The Next Wave [Боевик, комедия, семейный, 2020] WEB-DLRip, Dub

salma3

0 | 0

1.37 ГБ

В этой теме нет новых непрочитанных сообщений. Королевские каникулы / Trouble [Мультфильм, комедия, семейный, 2019] WEB-DLRip, Dub [iTunes]

salma3

2960 | 114

1.46 ГБ

В этой теме нет новых непрочитанных сообщений. Виктория [Комедия, спорт, семейный, 2020] WEB-DLRip [iTunes]

salma3

109 | 35

1.46 ГБ


Начать новую тему Ответить на тему  [ 1 сообщение ] 




Для Мосгорсуда, Роскомнадзора и рекламодателей:: rstracker[собака]yandex.ru
cron