Торрент файл

скачать торрент магнет ссылка Добавлен: 13 мар 2020, 12:50
Размер: 1.41 ГБ
Сидеров: 0
Личеров: 0
Статус: (salma3)
Автор

СообщениеДобавлено: 13 мар 2020, 12:50 

Не в сети
Супермодератор
Аватара пользователя
Дата регистрации:
15 фев 2012, 16:44
Возраст: 30
Спасибо: 8206 / 2148
Сообщения: 95877
Год выхода: 2019
Жанр: Мультфильм, фантастика, боевик
Режиссер: Ник Бруно, Трой Квон

Роли озвучивают: Уилл Смит, Том Холланд, Рашида Джонс, Бен Мендельсонm Риба МакИнтайр, Рэйчел Броснахэн, Карен Гиллан, D.J. Халед, Маси Ока, Карла Хименес

О фильме:
Супершпион Лэнс Стерлинг и молодой ученый Уолтер Беккет — полные противоположности. Жизнерадостный Лэнс с удовольствием каждый день спасает города и страны. Хмурый Уолтер хочет отгородиться от всех в мире собственных изобретений и гаджетов. Но когда события принимают неожиданный оборот, этот маловероятный дуэт вынужден объединиться и проявить все свои способности в совершенно новом ключе. Странной паре потребуются невероятные чудеса маскировки ради спасения всего мира.



Страна: США
Продолжительность: 01:41:51
Перевод: Профессиональный (полное дублирование) | iTunes

Файл
Качество: BDRip-AVC
Видео: 1024x428 (2.40:1), 23,976 fps, MPEG-4 AVC ~ 1600 Kbps avg, 0.152 bit/pixel
Аудио: AC3, 48 kHz, 6 ch, ~384.00 kbps avg | русский | iTunes
Субтитры: Русские (Forced, full)

Общее
Уникальный идентификатор : 153530908111689858484128054000173190826 (0x7380FA32703238FE36CA5159CEB40EAA)
Полное имя : Spies.in.Disguise.2019.iT.BDRip.x264.mkv
Формат : Matroska
Версия формата : Version 4
Размер файла : 1,41 Гбайт
Продолжительность : 1 ч. 41 м.
Общий поток : 1986 Кбит/сек
Название фильма : Камуфляж и шпионаж / Spies in Disguise (2019)
Дата кодирования : UTC 2020-03-13 03:35:44
Программа кодирования : mkvmerge v41.0.0 ('Smarra') 64-bit
Библиотека кодирования : libebml v1.3.9 + libmatroska v1.5.2

Видео
Идентификатор : 1
Формат : AVC
Формат/Информация : Advanced Video Codec
Профиль формата : High@L4.1
Настройки формата : CABAC / 10 Ref Frames
Параметр CABAC формата : Да
Параметр RefFrames формата : 10 кадров
Идентификатор кодека : V_MPEG4/ISO/AVC
Продолжительность : 1 ч. 41 м.
Битрейт : 1600 Кбит/сек
Ширина : 1024 пикселя
Высота : 428 пикселей
Соотношение сторон : 2,40:1
Режим частоты кадров : Постоянный
Частота кадров : 23,976 кадра/сек
Цветовое пространство : YUV
Субдискретизация насыщенности : 4:2:0
Битовая глубина : 8 бит
Тип развёртки : Прогрессивная
Бит/(Пиксели*Кадры) : 0.152
Размер потока : 1,14 Гбайт (81%)
Заголовок : #stillet
Библиотека кодирования : x264 core 152 r2851bm ba24899
Настройки программы : cabac=1 / ref=10 / deblock=1:-3:-3 / analyse=0x3:0x113 / me=umh / subme=11 / psy=1 / psy_rd=1.00:0.15 / mixed_ref=1 / me_range=32 / chroma_me=1 / trellis=2 / 8x8dct=1 / cqm=0 / deadzone=21,11 / fast_pskip=0 / chroma_qp_offset=-3 / threads=8 / lookahead_threads=3 / sliced_threads=0 / nr=0 / decimate=0 / interlaced=0 / bluray_compat=0 / constrained_intra=0 / bframes=11 / b_pyramid=2 / b_adapt=2 / b_bias=0 / direct=3 / weightb=1 / open_gop=0 / weightp=2 / keyint=240 / keyint_min=23 / scenecut=40 / intra_refresh=0 / rc=2pass / mbtree=0 / bitrate=1600 / ratetol=1.0 / qcomp=0.60 / qpmin=0 / qpmax=69 / qpstep=4 / cplxblur=20.0 / qblur=0.5 / ip_ratio=1.40 / pb_ratio=1.30 / aq=1:1.00
Язык : English
Default : Да
Forced : Нет

Аудио
Идентификатор : 2
Формат : AC-3
Формат/Информация : Audio Coding 3
Коммерческое название : Dolby Digital
Идентификатор кодека : A_AC3
Продолжительность : 1 ч. 41 м.
Вид битрейта : Постоянный
Битрейт : 384 Кбит/сек
Каналы : 6 каналов
ChannelLayout : L R C LFE Ls Rs
Частота : 48,0 КГц
Частота кадров : 31,250 кадров/сек (1536 SPF)
Метод сжатия : С потерями
Размер потока : 280 Мбайт (19%)
Заголовок : iTunes
Язык : Russian
Default : Да
Forced : Да

Текст #1
Идентификатор : 3
Формат : UTF-8
Идентификатор кодека : S_TEXT/UTF8
Идентификатор кодека/Информация : UTF-8 Plain Text
Продолжительность : 1 ч. 40 м.
Битрейт : 2 бит/сек
ElementCount : 48
Размер потока : 1,85 Кбайт (0%)
Заголовок : Forced
Язык : Russian
Default : Да
Forced : Да

Текст #2
Идентификатор : 4
Формат : UTF-8
Идентификатор кодека : S_TEXT/UTF8
Идентификатор кодека/Информация : UTF-8 Plain Text
Продолжительность : 1 ч. 40 м.
Битрейт : 79 бит/сек
ElementCount : 1455
Размер потока : 58,7 Кбайт (0%)
Заголовок : Full
Язык : Russian
Default : Нет
Forced : Нет

Меню
00:00:00.000 : :Chapter 1
00:04:09.499 : :Chapter 2
00:06:54.497 : :Chapter 3
00:11:53.838 : :Chapter 4
00:15:31.013 : :Chapter 5
00:20:35.484 : :Chapter 6
00:23:20.858 : :Chapter 7
00:26:42.434 : :Chapter 8
00:30:59.524 : :Chapter 9
00:36:06.581 : :Chapter 10
00:41:34.951 : :Chapter 11
00:45:41.947 : :Chapter 12
00:49:57.786 : :Chapter 13
00:53:58.902 : :Chapter 14
00:56:34.308 : :Chapter 15
01:00:06.770 : :Chapter 16
01:08:46.914 : :Chapter 17
01:12:51.784 : :Chapter 18
01:17:34.275 : :Chapter 19
01:20:18.939 : :Chapter 20
01:23:19.077 : :Chapter 21
01:26:05.243 : :Chapter 22
01:29:47.173 : :Chapter 23
01:33:08.875 : :Chapter 24


_________________
Проголосуй за трекер Открытый торрент трекер - RUS-MEDIA.ORG

Проголосуй Открытый торрент трекер - RUS-MEDIA.ORG


Скачать книги и аудио книги через торрент


Вернуться к началу
 Профиль Отправить личное сообщение  
 
   Похожие торренты   Автор   Торрент   Размер 
В этой теме нет новых непрочитанных сообщений. Камуфляж и шпионаж / Spies in Disguise [Мультфильм, фантастика, боевик, 2019] BDRip, Dub [iTunes]

salma3

0 | 0

1.42 ГБ

В этой теме нет новых непрочитанных сообщений. Гемини / Gemini Man [Фантастика, боевик, триллер, 2019] BDRip-AVC, Dub [iTunes]

salma3

0 | 0

1.36 ГБ

В этой теме нет новых непрочитанных сообщений. Капитан Марвел / Captain Marvel [Фантастика, боевик, приключения, 2019] BDRip-AVC, Dub [iTunes]

salma3

140 | 3

2.85 ГБ

В этой теме нет новых непрочитанных сообщений. Капитан Марвел / Captain Marvel [Фантастика, боевик, приключения, 2019] BDRip-AVC, Dub [iTunes]

salma3

56 | 3

1.4 ГБ

В этой теме нет новых непрочитанных сообщений. Люди в черном: Интернэшнл / Men in Black International [Фантастика, боевик, комедия, 2019] BDRip-AVC, Dub [iTunes]

salma3

0 | 0

745.57 МБ

В этой теме нет новых непрочитанных сообщений. Терминатор: Темные судьбы / Terminator: Dark Fate [Фантастика, боевик, приключения, 2019] BDRip-AVC, Dub [iTunes]

salma3

0 | 0

2.64 ГБ

В этой теме нет новых непрочитанных сообщений. Терминатор: Темные судьбы / Terminator: Dark Fate [Фантастика, боевик, приключения, 2019] BDRip-AVC, Dub [iTunes]

salma3

0 | 0

1.46 ГБ


Начать новую тему Ответить на тему  [ 1 сообщение ] 




Для Мосгорсуда, Роскомнадзора и рекламодателей:: rstracker[собака]yandex.ru
cron