COVID-19 - Последняя информация о коронавирусе на сайте Минздрава




Торрент файл
скачать торрент магнет ссылка Добавлен: 09 янв 2020, 17:34
Размер: 7.69 ГБ
Сидеров: 0
Личеров: 0
Статус: (salma3)
Автор

СообщениеДобавлено: 09 янв 2020, 17:34 

Не в сети
Супермодератор
Аватара пользователя
Дата регистрации:
15 фев 2012, 16:44
Возраст: 31
Спасибо: 8273 / 2148
Сообщения: 96527
Год выхода: 1988
Жанр: Мультфильм, приключения, семейный
Режиссер: Дон Блат

В ролях: Джудит Барси, Пэт Хингл, Гэбриел Дэймон, Хелен Шейвер, Билл Эрвин, Берк Бирнс, Кендес Хатсон, Уилл Райан, Дайана Росс

О фильме:
Было время, когда нога человека еще не ступала на Землю. То было время извергающихся вулканов, громадных землетрясений и ужасных катаклизмов. Наша планета тогда была населена удивительными и странными существами. Герой этого мультика, очаровательный бронтозаврик Крошки-Ножки, отправился на поиски легендарной Великой Долины, где по слухам можно неплохо подкрепиться. По пути он прихватил с собой в путешествие еще четырех малышей-динозавриков. В дороге эту пеструю компанию поджидают удивительные и опасные приключения.



Страна: США, Ирландия
Продолжительность: 01:08:49
Перевод: Профессиональный (дублированный), профессиональный многоголосый, авторский, любительский

Файл
Кодек: h.265
Качество: BDRip-HEVC 1080p
Видео: HEVC/H.265, 1920x1038, 23,976 fps, 12900 Kbps
Звук:
Аудио #01: AC3, 6 ch, 448 Кбит/сек | Русский, профессиональный (полное дублирование) Selena International, ОРТ, DVD
Аудио #02: AC3, 2 ch, 192 Кбит/сек | Русский, профессиональный (многоголосый закадровый) НТВ
Аудио #03: AC3, 2 ch, 192 Кбит/сек | Русский, профессиональный (многоголосый закадровый)
Аудио #04: AC3, 6 ch, 448 Кбит/сек | Русский, авторский (одноголосый закадровый) Юрий Живов
Аудио #05: AC3, 2 ch, 192 Кбит/сек | Русский, авторский (одноголосый закадровый) Михаил Иванов 1
Аудио #06: AC3, 2 ch, 192 Кбит/сек | Русский, авторский (одноголосый закадровый) Михаил Иванов 2
Аудио #07: AC3, 2 ch, 192 Кбит/сек | Русский, авторский (одноголосый закадровый) Василий Горчаков
Аудио #08: AC3, 2 ch, 192 Кбит/сек | Русский, авторский (одноголосый закадровый) Максим Ошурков
Аудио #09: AC3, 2 ch, 192 Кбит/сек | Русский, авторский (одноголосый закадровый) Сергей Визгунов
Аудио #10: AC3, 2 ch, 192 Кбит/сек | Русский, любительский (одноголосый закадровый) Экшен Студио Ленинград, Дама
Аудио #11: AC3, 2 ch, 192 Кбит/сек | Украинский, профессиональный (многоголосый закадровый) 1+1
Аудио #12: AC3, 6 ch, 448 Кбит/сек | Английский
Субтитры: Русские, английские



Video
ID : 1
Format : HEVC
Format/Info : High Efficiency Video Coding
Format profile : Main 10@L4@Main
Codec ID : V_MPEGH/ISO/HEVC
Duration : 1 h 8 min
Bit rate : 12.9 Mb/s
Width : 1 920 pixels
Height : 1 038 pixels
Display aspect ratio : 1.85:1
Frame rate mode : Constant
Frame rate : 23.976 (24000/1001) FPS
Color space : YUV
Chroma subsampling : 4:2:0
Bit depth : 10 bits
Bits/(Pixel*Frame) : 0.271
Stream size : 6.22 GiB (81%)
Writing library : x265 1.9+141-02d79be487d7:[Windows][MSVC 1900][64 bit] 10bit
Encoding settings : wpp / ctu=64 / min-cu-size=8 / max-tu-size=32 / tu-intra-depth=1 / tu-inter-depth=1 / me=1 / subme=2 / merange=57 / no-rect / no-amp / max-merge=2 / temporal-mvp / no-early-skip / rdpenalty=0 / no-tskip / no-tskip-fast / strong-intra-smoothing / no-lossless / no-cu-lossless / no-constrained-intra / no-fast-intra / open-gop / no-temporal-layers / interlace=0 / keyint=250 / min-keyint=23 / scenecut=40 / rc-lookahead=20 / lookahead-slices=6 / bframes=8 / bframe-bias=0 / b-adapt=2 / ref=3 / limit-refs=3 / no-limit-modes / weightp / no-weightb / aq-mode=3 / qg-size=32 / aq-strength=1.00 / cbqpoffs=0 / crqpoffs=0 / rd=6 / psy-rd=0.45 / rdoq-level=0 / psy-rdoq=0.00 / no-rd-refine / signhide / deblock=0:0 / sao / no-sao-non-deblock / b-pyramid / cutree / no-intra-refresh / rc=crf / crf=22.0 / qcomp=0.60 / qpmin=0 / qpmax=51 / qpstep=4 / ipratio=1.40 / pbratio=1.30
Language : English
Default : Yes
Forced : No

Audio #1
ID : 2
Format : AC-3
Format/Info : Audio Coding 3
Commercial name : Dolby Digital
Codec ID : A_AC3
Duration : 1 h 8 min
Bit rate mode : Constant
Bit rate : 448 kb/s
Channel(s) : 6 channels
Channel layout : L R C LFE Ls Rs
Sampling rate : 48.0 kHz
Frame rate : 31.250 FPS (1536 SPF)
Compression mode : Lossy
Stream size : 219 MiB (3%)
Title : DUB | 5.1
Language : Russian
Service kind : Complete Main
Default : Yes
Forced : No

Audio #2
ID : 3
Format : AC-3
Format/Info : Audio Coding 3
Commercial name : Dolby Digital
Codec ID : A_AC3
Duration : 1 h 8 min
Bit rate mode : Constant
Bit rate : 192 kb/s
Channel(s) : 2 channels
Channel layout : L R
Sampling rate : 48.0 kHz
Frame rate : 31.250 FPS (1536 SPF)
Compression mode : Lossy
Stream size : 94.0 MiB (1%)
Title : MVO | НТВ
Language : Russian
Service kind : Complete Main
Default : No
Forced : No

Audio #3
ID : 4
Format : AC-3
Format/Info : Audio Coding 3
Commercial name : Dolby Digital
Codec ID : A_AC3
Duration : 1 h 8 min
Bit rate mode : Constant
Bit rate : 192 kb/s
Channel(s) : 2 channels
Channel layout : L R
Sampling rate : 48.0 kHz
Frame rate : 31.250 FPS (1536 SPF)
Compression mode : Lossy
Stream size : 94.0 MiB (1%)
Title : MVO
Language : Russian
Service kind : Complete Main
Default : No
Forced : No

Audio #4
ID : 5
Format : AC-3
Format/Info : Audio Coding 3
Commercial name : Dolby Digital
Codec ID : A_AC3
Duration : 1 h 8 min
Bit rate mode : Constant
Bit rate : 448 kb/s
Channel(s) : 6 channels
Channel layout : L R C LFE Ls Rs
Sampling rate : 48.0 kHz
Frame rate : 31.250 FPS (1536 SPF)
Compression mode : Lossy
Stream size : 219 MiB (3%)
Title : AVO | Ю. Живов
Language : Russian
Service kind : Complete Main
Default : No
Forced : No

Audio #5
ID : 6
Format : AC-3
Format/Info : Audio Coding 3
Commercial name : Dolby Digital
Codec ID : A_AC3
Duration : 1 h 8 min
Bit rate mode : Constant
Bit rate : 192 kb/s
Channel(s) : 2 channels
Channel layout : L R
Sampling rate : 48.0 kHz
Frame rate : 31.250 FPS (1536 SPF)
Compression mode : Lossy
Stream size : 94.0 MiB (1%)
Title : AVO | М. Иванов 1
Language : Russian
Service kind : Complete Main
Default : No
Forced : No

Audio #6
ID : 7
Format : AC-3
Format/Info : Audio Coding 3
Commercial name : Dolby Digital
Codec ID : A_AC3
Duration : 1 h 8 min
Bit rate mode : Constant
Bit rate : 192 kb/s
Channel(s) : 2 channels
Channel layout : L R
Sampling rate : 48.0 kHz
Frame rate : 31.250 FPS (1536 SPF)
Compression mode : Lossy
Stream size : 94.0 MiB (1%)
Title : AVO | М. Иванов 2
Language : Russian
Service kind : Complete Main
Default : No
Forced : No

Audio #7
ID : 8
Format : AC-3
Format/Info : Audio Coding 3
Commercial name : Dolby Digital
Codec ID : A_AC3
Duration : 1 h 8 min
Bit rate mode : Constant
Bit rate : 192 kb/s
Channel(s) : 2 channels
Channel layout : L R
Sampling rate : 48.0 kHz
Frame rate : 31.250 FPS (1536 SPF)
Compression mode : Lossy
Stream size : 94.0 MiB (1%)
Title : AVO | В. Горчаков
Language : Russian
Service kind : Complete Main
Default : No
Forced : No

Audio #8
ID : 9
Format : AC-3
Format/Info : Audio Coding 3
Commercial name : Dolby Digital
Codec ID : A_AC3
Duration : 1 h 8 min
Bit rate mode : Constant
Bit rate : 192 kb/s
Channel(s) : 2 channels
Channel layout : L R
Sampling rate : 48.0 kHz
Frame rate : 31.250 FPS (1536 SPF)
Compression mode : Lossy
Stream size : 94.0 MiB (1%)
Title : AVO | М. Ошурков
Language : Russian
Service kind : Complete Main
Default : No
Forced : No

Audio #9
ID : 10
Format : AC-3
Format/Info : Audio Coding 3
Commercial name : Dolby Digital
Codec ID : A_AC3
Duration : 1 h 8 min
Bit rate mode : Constant
Bit rate : 192 kb/s
Channel(s) : 2 channels
Channel layout : L R
Sampling rate : 48.0 kHz
Frame rate : 31.250 FPS (1536 SPF)
Compression mode : Lossy
Stream size : 94.0 MiB (1%)
Title : AVO | С. Визгунов
Language : Russian
Service kind : Complete Main
Default : No
Forced : No

Audio #10
ID : 11
Format : AC-3
Format/Info : Audio Coding 3
Commercial name : Dolby Digital
Codec ID : A_AC3
Duration : 1 h 8 min
Bit rate mode : Constant
Bit rate : 192 kb/s
Channel(s) : 2 channels
Channel layout : L R
Sampling rate : 48.0 kHz
Frame rate : 31.250 FPS (1536 SPF)
Compression mode : Lossy
Stream size : 94.0 MiB (1%)
Title : VO | Экшен Студио Ленинград, Дама
Language : Russian
Service kind : Complete Main
Default : No
Forced : No

Audio #11
ID : 12
Format : AC-3
Format/Info : Audio Coding 3
Commercial name : Dolby Digital
Codec ID : A_AC3
Duration : 1 h 8 min
Bit rate mode : Constant
Bit rate : 192 kb/s
Channel(s) : 2 channels
Channel layout : L R
Sampling rate : 48.0 kHz
Frame rate : 31.250 FPS (1536 SPF)
Compression mode : Lossy
Stream size : 94.0 MiB (1%)
Title : MVO | 1+1
Language : Ukrainian
Service kind : Complete Main
Default : No
Forced : No

Audio #12
ID : 13
Format : AC-3
Format/Info : Audio Coding 3
Commercial name : Dolby Digital
Codec ID : A_AC3
Duration : 1 h 8 min
Bit rate mode : Constant
Bit rate : 448 kb/s
Channel(s) : 6 channels
Channel layout : L R C LFE Ls Rs
Sampling rate : 48.0 kHz
Frame rate : 31.250 FPS (1536 SPF)
Compression mode : Lossy
Stream size : 219 MiB (3%)
Title : Original
Language : English
Service kind : Complete Main
Default : No
Forced : No

Text #1
ID : 14
Format : UTF-8
Codec ID : S_TEXT/UTF8
Codec ID/Info : UTF-8 Plain Text
Duration : 59 min 54 s
Bit rate : 47 b/s
Count of elements : 480
Stream size : 20.7 KiB (0%)
Language : Russian
Default : No
Forced : No

Text #2
ID : 15
Format : UTF-8
Codec ID : S_TEXT/UTF8
Codec ID/Info : UTF-8 Plain Text
Duration : 1 h 3 min
Bit rate : 33 b/s
Count of elements : 889
Stream size : 15.6 KiB (0%)
Language : English
Default : No
Forced : No

Menu
00:00:00.000 : en:Chapter 01
00:05:05.305 : en:Chapter 02
00:10:16.866 : en:Chapter 03
00:12:54.190 : en:Chapter 04
00:16:11.470 : en:Chapter 05
00:18:13.967 : en:Chapter 06
00:27:12.964 : en:Chapter 07
00:29:23.178 : en:Chapter 08
00:30:47.303 : en:Chapter 09
00:35:49.147 : en:Chapter 10
00:37:23.449 : en:Chapter 11
00:45:35.441 : en:Chapter 12
00:46:54.520 : en:Chapter 13
00:50:14.636 : en:Chapter 14
00:54:30.892 : en:Chapter 15
00:58:19.370 : en:Chapter 16


Релиз от: ~NoobSaibot~


_________________
Проголосуй за трекер Открытый торрент трекер - RUS-MEDIA.ORG

Проголосуй Открытый торрент трекер - RUS-MEDIA.ORG


Скачать книги и аудио книги через торрент


Вернуться к началу
 Профиль Отправить личное сообщение  
 
   Похожие торренты   Автор   Торрент   Размер 
В этой теме нет новых непрочитанных сообщений. Земля, забытая временем / The Land That Time Forgot [фэнтези, приключения, 1975] BDRip 720p, Avo

salma3

16 | 2

4.35 ГБ

В этой теме нет новых непрочитанных сообщений. Братец медвежонок / Brother Bear [Мультфильм, приключения, семейный, 2003] BDRip-HEVC 1080p, Dub

salma3

0 | 0

3.59 ГБ

В этой теме нет новых непрочитанных сообщений. Король Лев / The Lion King [Мультфильм, мюзикл, драма, приключения, семейный, 2019] BDRip-HEVC 1080p, Dub [iTunes]

K15

566 | 33

6.8 ГБ

В этой теме нет новых непрочитанных сообщений. Хороший динозавр / The Good Dinosaur [мультфильм, фэнтези, драма, комедия, приключения, семейный, 2015] BDRip-HEVC 1080p, Dub [Лицензия]

K15

10 | 3

6.33 ГБ

В этой теме нет новых непрочитанных сообщений. Королевский корги / The Queen's Corgi [мультфильм, комедия, семейный, 2019] BDRip-HEVC 1080p, Dub [iTunes]

salma3

0 | 0

5.37 ГБ

В этой теме нет новых непрочитанных сообщений. Лесная братва / Over the Hedge [мультфильм, комедия, приключения, 2006] BDRip 1080p-HEVC, Dub

salma3

0 | 0

4.98 ГБ

В этой теме нет новых непрочитанных сообщений. Тёмные начала / His Dark Materials (Сезон 1 -2 , Серия 1-10 из 16) (Джейми Чайлдс, Том Хупер) [2019,Фэнтези, драма, приключения, семейный,WEB-DLRip - HEVC-1080p] [LostFilm+Novamedia+HDRezka+Jaskier+NewStudio+ENG]+[Subs Rus , ENG]

Враг Нароода

1 | 0

31.18 ГБ


Начать новую тему Ответить на тему  [ 1 сообщение ] 




Для Мосгорсуда, Роскомнадзора и рекламодателей:: rstracker[собака]yandex.ru
cron