COVID-19 - Последняя информация о коронавирусе на сайте Минздрава




Торрент файл
скачать торрент магнет ссылка Добавлен: 09 янв 2020, 17:11
Размер: 4.39 ГБ
Сидеров: 0
Личеров: 0
Статус: (salma3)
Автор

СообщениеДобавлено: 09 янв 2020, 17:11 

Не в сети
Супермодератор
Аватара пользователя
Дата регистрации:
15 фев 2012, 16:44
Возраст: 30
Спасибо: 8217 / 2148
Сообщения: 95904
Год выхода: 1998
Жанр: Мультфильм, мюзикл, фэнтези
Режиссер: Фредерик Ду Чау

В ролях: Джессалин Гилсиг, Андреа Корр, Кэри Элвис, Брайан Уайт, Гари Олдман, Эрик Айдл, Дон Риклз, Джейн Сеймур, Селин Дион, Пирс Броснан, Стив Перри, Бронсон Пиншо, Джэлил Уайт, Гэбриел Бирн, Джон Гилгуд

О фильме:
Когда-то в старой Англии, во времена рыцарей Круглого стола, существовал таинственный город Камелот. И правил им король Артур, владевший волшебным мечом - Экскалибуром. Но коварный злой барон Рубер решил похитить меч и разрушить город чести и отваги. На поиски похищенного Экскалибура отправляется смелая девушка Кейли и юноша Геррэт. Любовь и верность помогают им в пути по магическому лесу, в борьбе с чудовищами и бароном.



Страна: США
Продолжительность: 01:25:57
Перевод: Дублированный, профессиональный многоголосый, авторский

Файл
Кодек: AVC
Качество: WEB-DL 1080p
Видео: MPEG-4 AVC, 5385 Kбит/с, 1920x1080, 23.976 кадр/с
Аудио #1: Русский (АС3, 6 ch, 384 Кбит/с, 48.0 KHz) Профессиональный (дублированный) R5
Аудио #2: Русский (АС3, 6 ch, 384 Кбит/с, 48.0 KHz) Aвторский (одноголосый, закадровый) Николай Антонов
Аудио #3: Русский (АС3, 6 ch, 384 Кбит/с, 48.0 KHz) Aвторский (одноголосый, закадровый) Юрий Живов
Аудио #4: Русский (АС3, 2 ch, 192 Кбит/с, 48.0 KHz) Профессиональный (многоголосый, закадровый) VHS
Аудио #5: Украинский (АС3, 2 ch, 192 Кбит/с, 48.0 KHz) Профессиональный (двухголосый, закадровый) (1+1)
Аудио #6: Английский (АС3, 6 ch, 384 Кбит/с, 48.0 KHz)
Субтитры: Русские, английские
Источник: Quest.for.Camelot.1998.1080p.WEB-DL.DD5.1.H.264-FGT
General
Unique ID : 216273730560786553070032425837127917560 (0xA2B4CE2DD9EFE1ECAD05F8A68685DFF8)
Complete name : Quest.for.Camelot.1998.WEB-DL.1080p.mkv
Format : Matroska
Format version : Version 4
File size : 4.39 GiB
Duration : 1 h 25 min
Overall bit rate : 7 308 kb/s
Encoded date : UTC 2020-01-09 10:08:56
Writing application : mkvmerge v7.1.0 ('Good Love') 64bit built on Jul 27 2014 13:06:55
Writing library : libebml v1.3.0 + libmatroska v1.4.1

Video
ID : 1
Format : AVC
Format/Info : Advanced Video Codec
Format profile : High@L4
Format settings : CABAC / 4 Ref Frames
Format settings, CABAC : Yes
Format settings, Reference fra : 4 frames
Codec ID : V_MPEG4/ISO/AVC
Duration : 1 h 25 min
Bit rate : 5 385 kb/s
Width : 1 920 pixels
Height : 1 080 pixels
Display aspect ratio : 16:9
Frame rate mode : Constant
Frame rate : 23.976 (23976/1000) FPS
Color space : YUV
Chroma subsampling : 4:2:0
Bit depth : 8 bits
Scan type : Progressive
Bits/(Pixel*Frame) : 0.108
Stream size : 3.23 GiB (74%)
Language : English
Default : Yes
Forced : No
Color range : Limited
Color primaries : BT.709
Transfer characteristics : BT.709
Matrix coefficients : BT.709

Audio #1
ID : 2
Format : AC-3
Format/Info : Audio Coding 3
Commercial name : Dolby Digital
Codec ID : A_AC3
Duration : 1 h 25 min
Bit rate mode : Constant
Bit rate : 384 kb/s
Channel(s) : 6 channels
Channel layout : L R C LFE Ls Rs
Sampling rate : 48.0 kHz
Frame rate : 31.250 FPS (1536 SPF)
Compression mode : Lossy
Stream size : 236 MiB (5%)
Title : Дубляж [R5]
Language : Russian
Service kind : Complete Main
Default : Yes
Forced : No

Audio #2
ID : 3
Format : AC-3
Format/Info : Audio Coding 3
Commercial name : Dolby Digital
Codec ID : A_AC3
Duration : 1 h 25 min
Bit rate mode : Constant
Bit rate : 384 kb/s
Channel(s) : 2 channels
Channel layout : L R
Sampling rate : 48.0 kHz
Frame rate : 31.250 FPS (1536 SPF)
Compression mode : Lossy
Stream size : 236 MiB (5%)
Title : AVO Nikolay Antonov VHS-Hi-Fi rip by Home Video
Language : Russian
Service kind : Complete Main
Default : No
Forced : No

Audio #3
ID : 4
Format : AC-3
Format/Info : Audio Coding 3
Commercial name : Dolby Digital
Codec ID : A_AC3
Duration : 1 h 25 min
Bit rate mode : Constant
Bit rate : 384 kb/s
Channel(s) : 2 channels
Channel layout : L R
Sampling rate : 48.0 kHz
Frame rate : 31.250 FPS (1536 SPF)
Compression mode : Lossy
Stream size : 236 MiB (5%)
Title : AVO Yuriy Jivov VHS-Hi-Fi rip by Home Video
Language : Russian
Service kind : Complete Main
Default : No
Forced : No

Audio #4
ID : 5
Format : AC-3
Format/Info : Audio Coding 3
Commercial name : Dolby Digital
Codec ID : A_AC3
Duration : 1 h 25 min
Bit rate mode : Constant
Bit rate : 192 kb/s
Channel(s) : 2 channels
Channel layout : L R
Sampling rate : 48.0 kHz
Frame rate : 31.250 FPS (1536 SPF)
Compression mode : Lossy
Stream size : 118 MiB (3%)
Title : Профессиональный, многоголосый [VHS] |
Language : Russian
Service kind : Complete Main
Default : No
Forced : No

Audio #5
ID : 6
Format : AC-3
Format/Info : Audio Coding 3
Commercial name : Dolby Digital
Codec ID : A_AC3
Duration : 1 h 25 min
Bit rate mode : Constant
Bit rate : 192 kb/s
Channel(s) : 2 channels
Channel layout : L R
Sampling rate : 48.0 kHz
Frame rate : 31.250 FPS (1536 SPF)
Compression mode : Lossy
Stream size : 118 MiB (3%)
Title : Профессиональный, двухголосый (1+1)
Language : Ukrainian
Service kind : Complete Main
Default : No
Forced : No

Audio #6
ID : 7
Format : AC-3
Format/Info : Audio Coding 3
Commercial name : Dolby Digital
Codec ID : A_AC3
Duration : 1 h 25 min
Bit rate mode : Constant
Bit rate : 384 kb/s
Channel(s) : 6 channels
Channel layout : L R C LFE Ls Rs
Sampling rate : 48.0 kHz
Frame rate : 31.250 FPS (1536 SPF)
Compression mode : Lossy
Stream size : 236 MiB (5%)
Language : English
Service kind : Complete Main
Default : No
Forced : No

Text #1
ID : 8
Format : UTF-8
Codec ID : S_TEXT/UTF8
Codec ID/Info : UTF-8 Plain Text
Duration : 1 h 15 min
Bit rate : 74 b/s
Count of elements : 970
Stream size : 41.2 KiB (0%)
Title : Full
Language : Russian
Default : No
Forced : No

Text #2
ID : 9
Format : UTF-8
Codec ID : S_TEXT/UTF8
Codec ID/Info : UTF-8 Plain Text
Duration : 1 h 15 min
Bit rate : 57 b/s
Count of elements : 1207
Stream size : 31.8 KiB (0%)
Language : English
Default : No
Forced : No

Menu
00:00:00.000 : en:The Camelot Saga
00:04:13.127 : en:"United We Stand"
00:06:34.602 : en:Ruber Rebels
00:08:06.944 : en:"On My Father's Wings"
00:12:37.047 : en:Griffin Attacks
00:13:50.746 : en:Excalibur Lost
00:14:54.935 : en:Where's the Glory?
00:16:48.298 : en:Invaded ("Ruber")
00:21:42.217 : en:"The Prayer"
00:24:55.410 : en:Forbidden Forest
00:26:00.350 : en:Rescued by Garrett
00:27:05.582 : en:"I Stand All Alone"
00:31:36.352 : en:Searchers
00:33:30.299 : en:Dragon Country
00:34:57.553 : en:Devon and Cornwall
00:36:33.274 : en:Fiery Attack
00:38:26.971 : en:"If I Didn't Have You"
00:42:17.660 : en:Join Us, Find Them
00:44:07.436 : en:Good as Any Knight
00:46:12.478 : en:Face to Face
00:48:06.049 : en:Close Call
00:50:04.251 : en:"Looking Through Your Eyes"
00:54:06.618 : en:The Ogre; a Clue
00:55:55.268 : en:Wake-Up Call
00:57:52.802 : en:Slip-Sliding Away
00:59:31.192 : en:Where He Belongs
01:01:26.808 : en:"I Stand All Alone" (Reprise)
01:02:21.612 : en:In the Wrong Hands
01:06:29.860 : en:Inside Camelot
01:07:38.054 : en:Under Siege
01:09:42.887 : en:Hayride to Castle
01:11:06.387 : en:The Griffin Burned
01:11:58.981 : en:No False King
01:12:50.866 : en:His Unlucky Day
01:14:52.738 : en:Just Knighted
01:16:48.562 : en:End Credits


_________________
Проголосуй за трекер Открытый торрент трекер - RUS-MEDIA.ORG

Проголосуй Открытый торрент трекер - RUS-MEDIA.ORG


Скачать книги и аудио книги через торрент


Вернуться к началу
 Профиль Отправить личное сообщение  
 
   Похожие торренты   Автор   Торрент   Размер 
В этой теме нет новых непрочитанных сообщений. Волшебный меч: Спасение Камелота / Quest for Camelot [мультфильм, мюзикл, фэнтези, 1998] WEB-DL 720p, Dub

salma3

25 | 10

3.2 ГБ

В этой теме нет новых непрочитанных сообщений. Холодное сердце 2 / Frozen II [Мультфильм, мюзикл, фэнтези, 2019] WEB-DLRip, Dub

salma3

0 | 0

1.46 ГБ

В этой теме нет новых непрочитанных сообщений. Смолфут / Smallfoot [Мультфильм, мюзикл, фэнтези, 2018] BDRip 1080p, Dub [iTunes]

salma3

0 | 0

5.53 ГБ

В этой теме нет новых непрочитанных сообщений. Клара и волшебный дракон / Клара та Чарівний Дракон [Мультфильм, комедия, приключения, 2019] WEB-DL 1080p, Dub [iTunes]

salma3

0 | 1

2.99 ГБ

В этой теме нет новых непрочитанных сообщений. Тайна Коко / Coco [Мультфильм, мюзикл, фэнтези, 2017] BDRip 1080p, Dub [Tunes]

salma3

0 | 0

8.82 ГБ

В этой теме нет новых непрочитанных сообщений. Смолфут / Smallfoot [Мультфильм, мюзикл, фэнтези, 2018] Blu-Ray 1080p, Dub [Лицензия]

salma3

0 | 0

43.76 ГБ

В этой теме нет новых непрочитанных сообщений. Смолфут / Smallfoot [Мультфильм, мюзикл, фэнтези, 2018] BDRemux 1080p, Dub [Лицензия] [3D-Video]

salma3

0 | 0

32.11 ГБ


Начать новую тему Ответить на тему  [ 1 сообщение ] 




Для Мосгорсуда, Роскомнадзора и рекламодателей:: rstracker[собака]yandex.ru
cron