COVID-19 - Последняя информация о коронавирусе на сайте Минздрава




Торрент файл
скачать торрент магнет ссылка Добавлен: 27 дек 2019, 22:57
Размер: 1.46 ГБ
Сидеров: 0
Личеров: 4
Статус: (salma3)
Автор

СообщениеДобавлено: 27 дек 2019, 22:57 

Не в сети
Супермодератор
Аватара пользователя
Дата регистрации:
15 фев 2012, 16:44
Возраст: 30
Спасибо: 8217 / 2148
Сообщения: 95904
Год выпуска: 2019
Жанр: Мультфильм, фэнтези, семейный
Режиссер: Карлос Гутиеррез Медрано

В ролях: Фернанда Кастильо, Алан Эстрада, Карло Рота, Мемо Апонте, Джуэлс Джазелль, Дино Андраде, Дани Арто, Сюзана Баллестерос, Диего Осорио, Камила Амезкуа

О фильме: Сельма выросла в любящей приемной семье, но вот уже 16 лет она мечтает встретить своих настоящих родителей. Неожиданно её старшие братья находят древнюю книгу заклинаний, открывающую путь в другие миры. Втроем они отправятся в путешествие в удивительный Город Призраков, чтобы отыскать ключ к прошлому девушки.



Страна: Мексика
Продолжительность: 01:28:05
Перевод: Дублированный [iTunes]

Файл
Качество: WEB-DLRip
Формат: AVI
Видео: 720x304 (2.37:1), 24.000 fps, XviD build 73 ~1973 kbps avg, 0.38 bit/pixel
Аудио: 48 kHz, AC3 Dolby Digital, 3/2 (L,C,R,l,r) + LFE ch, ~384 kbps

Формат : AVI
Формат/Информация : Audio Video Interleave
Размер файла : 1,46 Гбайт
Продолжительность : 1 ч. 28 м.
Общий поток : 2366 Кбит/сек
Название фильма : Сельма в городе призраков_2019_WEB-DLRip
Программа кодирования : VirtualDubMod 1.5.10.3 | (build 2550/release)
Авторское право : порошков

Видео
Идентификатор : 0
Формат : MPEG-4 Visual
Профиль формата : Advanced Simple@L5
Настройки формата : BVOP1 / Custom Matrix
Параметр BVOP формата : 1
Параметр QPel формата : Нет
Параметр GMC формата : Без точки перехода
Параметр матрицы формата : Выборочная
Идентификатор кодека : XVID
Идентификатор кодека/Подсказка : XviD
Продолжительность : 1 ч. 28 м.
Битрейт : 1973 Кбит/сек
Ширина : 720 пикселей
Высота : 304 пикселя
Соотношение сторон : 2,35:1
Частота кадров : 24,000 кадра/сек
Цветовое пространство : YUV
Субдискретизация насыщенности : 4:2:0
Битовая глубина : 8 бит
Тип развёртки : Прогрессивная
Метод сжатия : С потерями
Бит/(Пиксели*Кадры) : 0.376
Размер потока : 1,21 Гбайт (83%)
Библиотека кодирования : XviD 73

Аудио
Идентификатор : 1
Формат : AC-3
Формат/Информация : Audio Coding 3
Коммерческое название : Dolby Digital
Идентификатор кодека : 2000
Продолжительность : 1 ч. 28 м.
Вид битрейта : Постоянный
Битрейт : 384 Кбит/сек
Каналы : 6 каналов
ChannelLayout : L R C LFE Ls Rs
Частота : 48,0 КГц
Частота кадров : 31,250 кадров/сек (1536 SPF)
Метод сжатия : С потерями
Размер потока : 242 Мбайт (16%)
Выравнивание : Разделение по промежуткам
Продолжительность промежутка : 42 мс. (1,00 видеокадр)
Время предзагрузки промежутка : 500 мс.


_________________
Проголосуй за трекер Открытый торрент трекер - RUS-MEDIA.ORG

Проголосуй Открытый торрент трекер - RUS-MEDIA.ORG


Скачать книги и аудио книги через торрент


Вернуться к началу
 Профиль Отправить личное сообщение  
 
   Похожие торренты   Автор   Торрент   Размер 
В этой теме нет новых непрочитанных сообщений. Сельма в городе призраков / Dia de Muertos [Мультфильм, фэнтези, семейный, 2019] WEB-DL 1080p, Dub [iTunes]

salma3

0 | 0

3.03 ГБ

В этой теме нет новых непрочитанных сообщений. Королевские каникулы / Trouble [Мультфильм, комедия, семейный, 2019] WEB-DLRip, Dub [iTunes]

salma3

2960 | 114

1.46 ГБ

В этой теме нет новых непрочитанных сообщений. Эверест / Abominable [Мультфильм, фэнтези, комедия, 2019] WEB-DLRip, Dub [iTunes]

salma3

0 | 0

1.46 ГБ

В этой теме нет новых непрочитанных сообщений. Клаус / Klaus [мультфильм, семейный, фэнтези, 2019] WEB-DLRip-AVC, Dub [Невафильм]

salma3

0 | 0

742.52 МБ

В этой теме нет новых непрочитанных сообщений. Малефисента: Владычица тьмы / Maleficent: Mistress of Evil [Фэнтези, приключения, семейный, 2019] WEB-DLRip Dub [iTunes]

salma3

1636 | 616

1.47 ГБ

В этой теме нет новых непрочитанных сообщений. Эбигейл [приключения, фэнтези, семейный, 2019] WEB-DLRip [iTunes]

salma3

589 | 20

1.46 ГБ

В этой теме нет новых непрочитанных сообщений. Домовой [Семейный, фэнтези, комедия, 2019] WEB-DLRip [iTunes]

salma3

1111 | 287

1.46 ГБ


Начать новую тему Ответить на тему  [ 1 сообщение ] 




Для Мосгорсуда, Роскомнадзора и рекламодателей:: rstracker[собака]yandex.ru
cron