COVID-19 - Последняя информация о коронавирусе на сайте Минздрава




Торрент файл
скачать торрент магнет ссылка Добавлен: 11 дек 2019, 22:55
Размер: 2.83 ГБ
Сидеров: 0
Личеров: 0
Статус: (salma3)
Автор

СообщениеДобавлено: 11 дек 2019, 22:55 

Не в сети
Супермодератор
Аватара пользователя
Дата регистрации:
15 фев 2012, 16:44
Возраст: 31
Спасибо: 8273 / 2148
Сообщения: 96475
Год выхода: 2004
Жанр: мультфильм, комедия, приключения
Режиссер: Бибо Бержерон, Вики Дженсон, Роб Леттерман

В ролях: Уилл Смит, Роберт Де Ниро, Рене Зеллвегер, Джек Блэк, Анджелина Джоли, Мартин Скорсезе, Зигги Марли, Даг Э. Даг, Майкл Империоли, Винсент Пасторе


Весь подводный мир встревожен убийством сына главы главной преступной группировки акул и, надо же, на месте преступления находят ничего не подозревающего малька Оскара! Всю жизнь Оскар мечтал быть сильным и знаменитым, и вот ему представился прекрасный случай воспользоваться чужой славой. Но очень скоро Оскар понимает, что он натворил, взяв титул «Гроза Акул»…



Страна: США
Продолжительность: 01:29:51
Перевод: Дубляж

Файл
Кодек: H.264
Качество: WEB-DLRip 720p от SuperMin
Видео: 1280x720 (16:9), 3485 kbps, 23.976 fps
Звук: Русский (AC-3, 6ch, 384 kbps)
Оригинал (AC-3, 6ch, 640 kbps)
Субтитры: русские, английские



x264 [info]: frame I:1185 Avg QP:16.96 size:100032
x264 [info]: frame P:37102 Avg QP:18.65 size: 33122
x264 [info]: frame B:90792 Avg QP:21.47 size: 10992
x264 [total]: encoded 129079 frames, 12.72 fps, 3485.21 kb/s

General
Unique ID : 240868838769939625263176578374700799139 (0xB535A6A310BF1ECACFCBC406126A94A3)
Complete name : F:МУЛЬТЫПодводная братва. WEB-DLRip 720p.mkv
Format : Matroska
Format version : Version 4
File size : 2.83 GiB
Duration : 1 h 29 min
Overall bit rate : 4 512 kb/s
Movie name : Подводная братва / Shark Tale (2004) - #LORDKILL#
Encoded date : UTC 2019-12-11 12:13:17
Writing application : mkvmerge v32.0.0 ('Astral Progressions') 64-bit
Writing library : libebml v1.3.7 + libmatroska v1.5.0

Video
ID : 1
Format : AVC
Format/Info : Advanced Video Codec
Format profile : High@L4.1
Format settings : CABAC / 9 Ref Frames
Format settings, CABAC : Yes
Format settings, Reference : 9 frames
Codec ID : V_MPEG4/ISO/AVC
Duration : 1 h 29 min
Bit rate : 3 485 kb/s
Width : 1 280 pixels
Height : 720 pixels
Display aspect ratio : 16:9
Frame rate mode : Constant
Frame rate : 23.976 (24000/1001) FPS
Color space : YUV
Chroma subsampling : 4:2:0
Bit depth : 8 bits
Scan type : Progressive
Bits/(Pixel*Frame) : 0.158
Stream size : 2.18 GiB (77%)
Writing library : x264 core 146 r2538 121396c
Encoding settings : cabac=1 / ref=9 / deblock=1:-1:-1 / analyse=0x3:0x113 / me=umh / subme=10 / psy=1 / psy_rd=1.00:0.15 / mixed_ref=1 / me_range=32 / chroma_me=1 / trellis=2 / 8x8dct=1 / cqm=0 / deadzone=21,11 / fast_pskip=0 / chroma_qp_offset=-3 / threads=12 / lookahead_threads=2 / sliced_threads=0 / nr=0 / decimate=1 / interlaced=0 / bluray_compat=0 / constrained_intra=0 / bframes=8 / b_pyramid=2 / b_adapt=2 / b_bias=0 / direct=1 / weightb=1 / open_gop=0 / weightp=2 / keyint=240 / keyint_min=23 / scenecut=40 / intra_refresh=0 / rc=crf / mbtree=0 / crf=19.5 / qcomp=0.60 / qpmin=0 / qpmax=69 / qpstep=4 / ip_ratio=1.40 / pb_ratio=1.30 / aq=1:1.00
Language : English
Default : Yes
Forced : No

Audio #1
ID : 2
Format : AC-3
Format/Info : Audio Coding 3
Commercial name : Dolby Digital
Codec ID : A_AC3
Duration : 1 h 29 min
Bit rate mode : Constant
Bit rate : 384 kb/s
Channel(s) : 6 channels
Channel layout : L R C LFE Ls Rs
Sampling rate : 48.0 kHz
Frame rate : 31.250 FPS (1536 SPF)
Bit depth : 16 bits
Compression mode : Lossy
Stream size : 246 MiB (9%)
Title : Дубляж (Невафильм)
Language : Russian
Service kind : Complete Main
Default : Yes
Forced : No

Audio #2
ID : 3
Format : E-AC-3
Format/Info : Enhanced AC-3
Commercial name : Dolby Digital Plus
Codec ID : A_EAC3
Duration : 1 h 29 min
Bit rate mode : Constant
Bit rate : 640 kb/s
Channel(s) : 6 channels
Channel layout : L R C LFE Ls Rs
Sampling rate : 48.0 kHz
Frame rate : 31.250 FPS (1536 SPF)
Compression mode : Lossy
Stream size : 411 MiB (14%)
Language : English
Service kind : Complete Main
Default : No
Forced : No

Text #1
ID : 4
Format : UTF-8
Codec ID : S_TEXT/UTF8
Codec ID/Info : UTF-8 Plain Text
Duration : 1 h 28 min
Bit rate : 115 b/s
Count of elements : 1243
Stream size : 74.9 KiB (0%)
Language : Russian
Default : No
Forced : No

Text #2
ID : 5
Format : UTF-8
Codec ID : S_TEXT/UTF8
Codec ID/Info : UTF-8 Plain Text
Duration : 1 h 29 min
Bit rate : 82 b/s
Count of elements : 1720
Stream size : 54.1 KiB (0%)
Language : English
Default : No
Forced : No

Text #3
ID : 6
Format : UTF-8
Codec ID : S_TEXT/UTF8
Codec ID/Info : UTF-8 Plain Text
Duration : 1 h 29 min
Bit rate : 81 b/s
Count of elements : 1473
Stream size : 53.3 KiB (0%)
Title : SDH
Language : English
Default : No
Forced : No

Menu
00:00:00.000 : en:Chapter 1
00:04:12.000 : en:Chapter 2
00:05:40.000 : en:Chapter 3
00:08:35.000 : en:Chapter 4
00:11:08.000 : en:Chapter 5
00:14:54.000 : en:Chapter 6
00:17:43.000 : en:Chapter 7
00:20:27.000 : en:Chapter 8
00:26:05.000 : en:Chapter 9
00:31:13.000 : en:Chapter 10
00:36:03.000 : en:Chapter 11
00:40:38.000 : en:Chapter 12
00:48:20.000 : en:Chapter 13
00:53:40.000 : en:Chapter 14
00:58:28.000 : en:Chapter 15
01:04:19.000 : en:Chapter 16
01:06:48.000 : en:Chapter 17
01:16:37.000 : en:Chapter 18
01:18:16.000 : en:Chapter 19
01:21:32.000 : en:Chapter 20


_________________
Проголосуй за трекер Открытый торрент трекер - RUS-MEDIA.ORG

Проголосуй Открытый торрент трекер - RUS-MEDIA.ORG


Скачать книги и аудио книги через торрент


Вернуться к началу
 Профиль Отправить личное сообщение  
 
   Похожие торренты   Автор   Торрент   Размер 
В этой теме нет новых непрочитанных сообщений. История рыцаря / A Knight's Tale [Приключения, мелодрама, комедия, 2001] WEB-DLRip-AVC, Dub [Open Matte]

salma3

0 | 0

3.1 ГБ

В этой теме нет новых непрочитанных сообщений. Лесная братва / Over the Hedge [мультфильм, комедия, приключения, 2006] BDRemux 1080p, Dub

salma3

0 | 0

17.94 ГБ

В этой теме нет новых непрочитанных сообщений. Лесная братва / Over the Hedge [мультфильм, комедия, приключения, 2006] BDRip-AVC, Dub

salma3

0 | 0

1.82 ГБ

В этой теме нет новых непрочитанных сообщений. Тачки / Cars [Мультфильм, комедия, приключения, 2006] WEB-DLRip 720p, Dub [Open Matte]

salma3

0 | 13

3.59 ГБ

В этой теме нет новых непрочитанных сообщений. Тачки / Cars [Мультфильм, комедия, приключения, 2006] WEB-DLRip 720p, Dub [Open Matte]

salma3

В этой теме нет новых непрочитанных сообщений. Лесная братва / Over the Hedge [мультфильм, комедия, приключения, 2006] BDRip 1080p-HEVC, Dub

salma3

0 | 0

4.98 ГБ

В этой теме нет новых непрочитанных сообщений. Подводная эра / Deep [мультфильм, комедия, приключения, 2017] BDRip 1080p, Dub [iTunes]

salma3

29 | 1

6.8 ГБ


Начать новую тему Ответить на тему  [ 1 сообщение ] 




Для Мосгорсуда, Роскомнадзора и рекламодателей:: rstracker[собака]yandex.ru
cron