Торрент файл
скачать торрент магнет ссылка Добавлен: 04 ноя 2019, 21:52
Размер: 3.59 ГБ
Сидеров: 0
Личеров: 0
Статус: (salma3)
Автор

СообщениеДобавлено: 04 ноя 2019, 21:52 

Не в сети
Супермодератор
Аватара пользователя
Дата регистрации:
15 фев 2012, 16:44
Возраст: 30
Спасибо: 8126 / 2147
Сообщения: 94336
Год выхода: 2003
Жанр: Мультфильм, приключения, семейный
Режиссеры: Аарон Блейс, Роберт Уолкер

В ролях: Хоакин Феникс, Джереми Суарес, Джейсон Райз, Рик Морэнис, Дэйв Томас, Д.Б. Суини, Джоан Коуплэнд, Майкл Кларк Дункан, Харольд Гулд, Пол Кристи

Описание:
Давным-давно, в те времена, когда по Земле ходили мамонты, а вечные льды достигали южных морей, жил охотник по имени Кенаи. Он был храбр и ловок, но однажды прогневил Великих Духов, убив медведицу — священного для него зверя, чей тотем он носил на шее. Тогда духи предков в наказание превратили в медведя самого Кенаи. Теперь он не может говорить по-человечески, за ним охотится его собственный брат, а еще к нему прибился озорной медвежонок Кода, не желающий оставить героя в покое. Но духи не зря свели Кенаи с Кодой — в час, когда охотник увидит в медвежонке родственную душу, он сможет снова стать человеком…



Производство: США
Продолжительность: 01:25:04
Перевод: Дублированный

Формат: MKV
Качество: BDRip-HEVC 1080p
Видео : HEVC/X.265, 1920x816, ~3573 Kbps, 10 bit
Аудио 1: AC3, 6 ch, 640 Kbps - Русский, дублированный (Лицензия)
Аудио 2: AC3, 2 ch, 192 Kbps - Украинский, дублированный (Nevafilm Ukraine)
Аудио 3: DTS, 6 ch, 1509 Kbps - Английский
Аудио 4: AAC, 2 ch, 123 Kbps - Английский
Субтитры: Русские (форсированные, полные), английские (полные, SDH, комментарии)

General
Unique ID : 226389126757930629175202383158739160084 (0xAA50F5B7769A160974E2655EF3A74C14)
Complete name : Brother Bear (2003) BDRip 1080p H.265 [RUS_UKR_ENG].mkv
Format : Matroska
Format version : Version 4
File size : 3.59 GiB
Duration : 1 h 25 min
Overall bit rate : 6 031 kb/s
Movie name : Братец медвежонок / Братик ведмедик / Brother Bear (2003)
Encoded date : UTC 2019-11-03 11:58:35
Writing application : mkvmerge v20.0.0 ('I Am The Sun') 64-bit
Writing library : libebml v1.3.5 + libmatroska v1.4.8
Cover : Yes
Attachments : Cover.jpg

Video
ID : 1
Format : HEVC
Format/Info : High Efficiency Video Coding
Format profile : Main 10@L5.1@High
Codec ID : V_MPEGH/ISO/HEVC
Duration : 1 h 25 min
Bit rate : 3 573 kb/s
Width : 1 920 pixels
Height : 816 pixels
Display aspect ratio : 2.35:1
Frame rate mode : Constant
Frame rate : 23.976 (24000/1001) FPS
Color space : YUV
Chroma subsampling : 4:2:0
Bit depth : 10 bits
Bits/(Pixel*Frame) : 0.095
Stream size : 2.12 GiB (59%)
Title : Братец медвежонок / Братик ведмедик / Brother Bear (2003)
Writing library : x265 3.1+11-de920e0a3183:[Windows][clang 8.0.0][64 bit] 10bit
Encoding settings : cpuid=1111039 / frame-threads=9 / numa-pools=8 / wpp / no-pmode / no-pme / no-psnr / no-ssim / log-level=3 / input-csp=1 / input-res=1920x816 / interlace=0 / total-frames=0 / level-idc=51 / high-tier=1 / uhd-bd=0 / ref=5 / allow-non-conformance / no-repeat-headers / annexb / no-aud / no-hrd / info / hash=0 / no-temporal-layers / open-gop / min-keyint=24 / keyint=240 / gop-lookahead=0 / bframes=8 / b-adapt=2 / b-pyramid / bframe-bias=0 / rc-lookahead=40 / lookahead-slices=5 / scenecut=40 / radl=0 / no-splice / no-intra-refresh / ctu=64 / min-cu-size=8 / rect / amp / max-tu-size=32 / tu-inter-depth=4 / tu-intra-depth=4 / limit-tu=0 / rdoq-level=2 / dynamic-rd=0.00 / no-ssim-rd / signhide / no-tskip / nr-intra=0 / nr-inter=0 / no-constrained-intra / no-strong-intra-smoothing / max-merge=3 / limit-refs=1 / no-limit-modes / me=3 / subme=7 / merange=57 / temporal-mvp / no-hme / weightp / weightb / no-analyze-src-pics / deblock=-3:-3 / no-sao / no-sao-non-deblock / rd=6 / no-early-skip / rskip / no-fast-intra / no-tskip-fast / no-cu-lossless / b-intra / no-splitrd-skip / rdpenalty=0 / psy-rd=2.00 / psy-rdoq=1.00 / no-rd-refine / no-lossless / cbqpoffs=0 / crqpoffs=0 / rc=crf / crf=18.0 / qcomp=0.65 / qpstep=4 / stats-write=0 / stats-read=0 / vbv-maxrate=50000 / vbv-bufsize=50000 / vbv-init=0.9 / crf-max=30.0 / crf-min=0.0 / ipratio=1.40 / pbratio=1.30 / aq-mode=1 / aq-strength=1.00 / cutree / zone-count=0 / no-strict-cbr / qg-size=32 / no-rc-grain / qpmax=69 / qpmin=0 / no-const-vbv / sar=1 / overscan=0 / videoformat=5 / range=0 / colorprim=2 / transfer=2 / colormatrix=2 / chromaloc=0 / display-window=0cll=0,0 / min-luma=0 / max-luma=1023 / log2-max-poc-lsb=8 / vui-timing-info / vui-hrd-info / slices=1 / no-opt-qp-pps / no-opt-ref-list-length-pps / no-multi-pass-opt-rps / scenecut-bias=0.05 / no-opt-cu-delta-qp / no-aq-motion / no-hdr / no-hdr-opt / no-dhdr10-opt / no-idr-recovery-sei / analysis-reuse-level=5 / scale-factor=0 / refine-intra=0 / refine-inter=0 / refine-mv=0 / refine-ctu-distortion=0 / no-limit-sao / ctu-info=0 / no-lowpass-dct / refine-analysis-type=0 / copy-pic=1 / max-ausize-factor=1.0 / no-dynamic-refine / no-single-sei / no-hevc-aq / no-svt / no-field / qp-adaptation-range=1.00
Default : Yes
Forced : No
Color range : Limited

Audio #1
ID : 2
Format : AC-3
Format/Info : Audio Coding 3
Commercial name : Dolby Digital
Codec ID : A_AC3
Duration : 1 h 25 min
Bit rate mode : Constant
Bit rate : 640 kb/s
Channel(s) : 6 channels
Channel layout : L R C LFE Ls Rs
Sampling rate : 48.0 kHz
Frame rate : 31.250 FPS (1536 SPF)
Bit depth : 16 bits
Compression mode : Lossy
Stream size : 390 MiB (11%)
Title : AC3 / 5.1 Ch / 640 kbps / DUB / Blu-Ray
Language : Russian
Service kind : Complete Main
Default : Yes
Forced : Yes

Audio #2
ID : 3
Format : AC-3
Format/Info : Audio Coding 3
Commercial name : Dolby Digital
Codec ID : A_AC3
Duration : 1 h 25 min
Bit rate mode : Constant
Bit rate : 192 kb/s
Channel(s) : 2 channels
Channel layout : L R
Sampling rate : 48.0 kHz
Frame rate : 31.250 FPS (1536 SPF)
Bit depth : 16 bits
Compression mode : Lossy
Stream size : 117 MiB (3%)
Title : AC3 / 2.0 Ch / 192 kbps / DUB / Nevafilm Ukraine
Language : Ukrainian
Service kind : Complete Main
Default : No
Forced : No

Audio #3
ID : 4
Format : DTS
Format/Info : Digital Theater Systems
Codec ID : A_DTS
Duration : 1 h 25 min
Bit rate mode : Constant
Bit rate : 1 509 kb/s
Channel(s) : 6 channels
Channel layout : C L R Ls Rs LFE
Sampling rate : 48.0 kHz
Frame rate : 93.750 FPS (512 SPF)
Bit depth : 24 bits
Compression mode : Lossy
Stream size : 919 MiB (25%)
Title : DTS / 5.1 Ch / 1509 kbps / Original
Language : English
Default : No
Forced : No

Audio #4
ID : 5
Format : AAC LC
Format/Info : Advanced Audio Codec Low Complexity
Codec ID : A_AAC-2
Duration : 1 h 25 min
Bit rate : 123 kb/s
Channel(s) : 2 channels
Channel layout : L R
Sampling rate : 48.0 kHz
Frame rate : 46.875 FPS (1024 SPF)
Compression mode : Lossy
Stream size : 74.7 MiB (2%)
Title : AAC / 2.0 Ch / 124 kbps / Original / Rutt and Tuke's Commentary
Language : English
Default : No
Forced : No

Text #1
ID : 6
Format : UTF-8
Codec ID : S_TEXT/UTF8
Codec ID/Info : UTF-8 Plain Text
Duration : 1 h 17 min
Bit rate : 0 b/s
Count of elements : 2
Stream size : 66.0 Bytes (0%)
Title : Forced
Language : Russian
Default : Yes
Forced : Yes

Text #2
ID : 7
Format : UTF-8
Codec ID : S_TEXT/UTF8
Codec ID/Info : UTF-8 Plain Text
Duration : 1 h 24 min
Bit rate : 85 b/s
Count of elements : 960
Stream size : 52.7 KiB (0%)
Title : Full
Language : Russian
Default : No
Forced : No

Text #3
ID : 8
Format : UTF-8
Codec ID : S_TEXT/UTF8
Codec ID/Info : UTF-8 Plain Text
Duration : 1 h 24 min
Bit rate : 51 b/s
Count of elements : 879
Stream size : 31.7 KiB (0%)
Title : Full
Language : English
Default : No
Forced : No

Text #4
ID : 9
Format : UTF-8
Codec ID : S_TEXT/UTF8
Codec ID/Info : UTF-8 Plain Text
Duration : 1 h 24 min
Bit rate : 57 b/s
Count of elements : 1041
Stream size : 35.5 KiB (0%)
Title : SDH
Language : English
Default : No
Forced : No

Text #5
ID : 10
Format : UTF-8
Codec ID : S_TEXT/UTF8
Codec ID/Info : UTF-8 Plain Text
Duration : 1 h 24 min
Bit rate : 160 b/s
Count of elements : 1978
Stream size : 99.6 KiB (0%)
Title : Commentary
Language : English
Default : No
Forced : No

Menu
00:00:00.000 : :Prologue: Denahi Remembers
00:02:01.287 : :"Great Spirits"
00:07:03.464 : :Kenai's Ceremony
00:11:24.100 : :Glacier Fight
00:14:33.205 : :Goodbye Sitka
00:15:21.253 : :Argument
00:20:10.083 : :"Transformation"
00:24:34.473 : :Bear's Eye View
00:27:06.708 : :Rutt & Tuke
00:29:45.617 : :Meet Koda
00:33:01.187 : :Ice Cave
00:36:18.926 : :Denahi Finds The Ice Cave
00:38:26.053 : :"On My Way"
00:42:22.581 : :Nightmare On The Mammoths
00:44:18.030 : :I Spy
00:47:10.369 : :Abandoned Village
00:48:59.519 : :Butting Heads
00:50:16.054 : :Valley Of Fire
00:54:21.132 : :Arrival At The Run
00:56:46.778 : :"Welcome" (aka Fishing Song)
01:00:11.316 : :Bear Party
01:04:58.895 : :No Way Out / Kenai's Confession
01:08:28.854 : :Denahi Sees A Sign
01:09:14.817 : :Moose's Advice
01:11:20.109 : :Mountain Top Fight
01:16:55.986 : :Epilogue: "Great Spirits Reprise"
01:18:01.468 : :Vignettes / End Credits
01:19:29.139 : :"Through My Eyes"


_________________
Проголосуй за трекер Открытый торрент трекер - RUS-MEDIA.ORG

Проголосуй Открытый торрент трекер - RUS-MEDIA.ORG


Скачать книги и аудио книги через торрент


Вернуться к началу
 Профиль Отправить личное сообщение  
 
   Похожие торренты   Автор   Торрент   Размер 
В этой теме нет новых непрочитанных сообщений. Медведь Йоги / Yogi Bear [Мультфильм, комедия, приключения, семейный, 2010] BDRip 720р, Dub

salma3

0 | 0

4.1 ГБ

В этой теме нет новых непрочитанных сообщений. Король Лев / The Lion King [Мультфильм, мюзикл, драма, приключения, семейный, 2019] BDRip-HEVC 1080p, Dub [iTunes]

K15

539 | 33

6.8 ГБ

В этой теме нет новых непрочитанных сообщений. Хороший динозавр / The Good Dinosaur [мультфильм, фэнтези, драма, комедия, приключения, семейный, 2015] BDRip-HEVC 1080p, Dub [Лицензия]

K15

10 | 3

6.33 ГБ

В этой теме нет новых непрочитанных сообщений. Королевский корги / The Queen's Corgi [мультфильм, комедия, семейный, 2019] BDRip-HEVC 1080p, Dub [iTunes]

salma3

0 | 0

5.37 ГБ

В этой теме нет новых непрочитанных сообщений. Последний самурай / The Last Samurai [боевик, драма, приключения, 2003] BDRip-HEVC 1080p, Dub

salma3

2 | 9

9.5 ГБ

В этой теме нет новых непрочитанных сообщений. Последний самурай / The Last Samurai [боевик, драма, приключения, 2003] BDRip-HEVC 1080p, Dub

salma3

0 | 0

9.51 ГБ

В этой теме нет новых непрочитанных сообщений. Лесная братва / Over the Hedge [мультфильм, комедия, приключения, 2006] BDRip 1080p-HEVC, Dub

salma3

0 | 0

4.98 ГБ


Начать новую тему Ответить на тему  [ 1 сообщение ] 




Для Мосгорсуда, Роскомнадзора и рекламодателей:: mosgorsud-torrent[собачка]yandex.ru
cron