COVID-19 - Последняя информация о коронавирусе на сайте Минздрава




Торрент файл
скачать торрент магнет ссылка Добавлен: 24 окт 2019, 10:55
Размер: 2.86 ГБ
Сидеров: 3
Личеров: 1
Статус: (salma3)
Автор

СообщениеДобавлено: 24 окт 2019, 10:55 

Не в сети
Супермодератор
Аватара пользователя
Дата регистрации:
15 фев 2012, 16:44
Возраст: 30
Спасибо: 8263 / 2148
Сообщения: 96287
Год выхода: 2017
Жанр: Мультфильм, комедия, приключения
Режиссер: Линь Хуэйда, Дин Лян, Линь Юнчан

Роли озвучивают: Лорен Шан, Бао Чуньлай, Сунь Цяньхун, Джозеф Цзэн, Чжан Бинцзюнь

О фильме:
Веселые и озорные братья медведи Брайр и Брамбл, как и все лесные жители, любят свой дом — лес, в котором они живут, и не позволяют своему давнему другу, лесорубу Вику, его уничтожить. Не в первый раз удирая от медведей, Вик сталкивается с роботом-археологом Коко, пытающейся отыскать древний затерянный мир «Фантастика» и сбежать от бандитов, охотящихся за сокровищами волшебного мира. Братья и Вик решают объединиться и встать на защиту сокровищ, ведь настоящая дружба способна на все.



Страна: Китай
Продолжительность: 01:23:31
Перевод: Профессиональный (полное дублирование) [iTunes]

Файл
Качество: WEB-DL 1080p
Формат: MKV
Кодек: MPEG-4 AVC
Видео: 1920x806 (2,40:1), 24 fps, MPEG-4 AVC ~ 4521 Kbps avg, 0.122 bit/pixel
Аудио: AC3, 48 kHz, 6 ch, ~384.00 kbps avg | русский | iTunes

Общее
Уникальный идентификатор : 317970507937534371274892330172386323966 (0xEF36E46B9A5F0799688B83D6EC5B2DFE)
Полное имя : D:BOONIE_BEARS_ESTANGLED_WORLDS_2019_WEB-DL_1080p-BLUEBIRD.mkv
Формат : Matroska
Версия формата : Version 4 / Version 2
Размер файла : 2,86 Гбайт
Продолжительность : 1 ч. 23 м.
Общий поток : 4908 Кбит/сек
Название фильма : BOONIE_BEARS_ESTANGLED_WORLDS_2019_WEB-DL_1080p-BLUEBIRD
Дата кодирования : UTC 2019-10-24 04:10:53
Программа кодирования : mkvmerge v38.0.0 ('The Silent Type') 64-bit
Библиотека кодирования : libebml v1.3.9 + libmatroska v1.5.2
Обложка : Yes
Attachments : cover2.png

Видео
Идентификатор : 1
Формат : AVC
Формат/Информация : Advanced Video Codec
Профиль формата : High@L4
Настройки формата : CABAC / 5 Ref Frames
Параметр CABAC формата : Да
Параметр RefFrames формата : 5 кадров
Идентификатор кодека : V_MPEG4/ISO/AVC
Продолжительность : 1 ч. 23 м.
Битрейт : 4521 Кбит/сек
Ширина : 1920 пикселей
Высота : 806 пикселей
Соотношение сторон : 2,40:1
Режим частоты кадров : Постоянный
Частота кадров : 24,000 кадра/сек
Цветовое пространство : YUV
Субдискретизация насыщенности : 4:2:0
Битовая глубина : 8 бит
Тип развёртки : Прогрессивная
Бит/(Пиксели*Кадры) : 0.122
Размер потока : 2,64 Гбайт (92%)
Заголовок : BOONIE_BEARS_ESTANGLED_WORLDS_2019_WEB-DL_1080p-BLUEBIRD
Язык : English
Default : Да
Forced : Нет
Цветовой диапазон : Limited
Основные цвета : BT.709
Характеристики трансфера : BT.709
Коэффициенты матрицы : BT.709

Аудио
Идентификатор : 2
Формат : AC-3
Формат/Информация : Audio Coding 3
Идентификатор кодека : A_AC3
Продолжительность : 1 ч. 23 м.
Вид битрейта : Постоянный
Битрейт : 384 Кбит/сек
Каналы : 6 каналов
Расположение каналов : Front: L C R, Side: L R, LFE
Частота : 48,0 КГц
Частота кадров : 31,250 кадров/сек (1536 SPF)
Битовая глубина : 16 бит
Метод сжатия : С потерями
Размер потока : 229 Мбайт (8%)
Заголовок : [DUB] DD 5.1 @ 384 kbps (iTunes)
Язык : Russian
Default : Да
Forced : Нет

Меню
00:00:00.000 : en:Глава 1
00:08:04.291 : en:Глава 2
00:16:11.624 : en:Глава 3
00:24:14.874 : en:Глава 4
00:32:19.874 : en:Глава 5
00:40:19.957 : en:Глава 6
00:48:28.248 : en:Глава 7
00:56:35.456 : en:Глава 8
01:04:47.914 : en:Глава 9
01:12:53.872 : en:Глава 10


Релиз от:


_________________
Проголосуй за трекер Открытый торрент трекер - RUS-MEDIA.ORG

Проголосуй Открытый торрент трекер - RUS-MEDIA.ORG


Скачать книги и аудио книги через торрент


Вернуться к началу
 Профиль Отправить личное сообщение  
 
   Похожие торренты   Автор   Торрент   Размер 
В этой теме нет новых непрочитанных сообщений. Братья Медведи: Тайна трёх миров / Boonie Bears: Entangled Worlds [Мультфильм, комедия, приключения, 2017] WEB-DLRip, Dub [iTunes]

salma3

0 | 0

1.37 ГБ

В этой теме нет новых непрочитанных сообщений. Побег из джунглей / Boonie Bears: Blast Into the Past [Мультфильм, комедия, фантастика, 2019] WEB-DLRip, Dub [iTunes]

salma3

727 | 31

1.46 ГБ

В этой теме нет новых непрочитанных сообщений. Тэд-путешественник и тайна царя Мидаса / Tadeo Jones 2: El secreto del Rey Midas [Мультфильм, комедия, приключения, 2017] BDRip 1080p, Dub [iTunes]

salma3

1146 | 97

7.88 ГБ

В этой теме нет новых непрочитанных сообщений. Война миров / War of the Worlds [Фантастика, приключения, триллер, 2005] BDRemux 1080p, Dub

salma3

6 | 9

36.68 ГБ

В этой теме нет новых непрочитанных сообщений. Тайна Коко / Coco [мультфильм, фэнтези, комедия, 2017] BDRip 1080p, Dub [3D-Video] [iTunes]

salma3

0 | 0

8.09 ГБ

В этой теме нет новых непрочитанных сообщений. Тэд-путешественник и тайна царя Мидаса / Tadeo Jones 2: El secreto del Rey Midas [Мультфильм, комедия, приключения, 2017] НDRip, Dub [iTunes]

salma3

3452 | 353

1.37 ГБ

В этой теме нет новых непрочитанных сообщений. В поисках йети / Mission Kathmandu: The Adventures of Nelly & Simon [Мультфильм, комедия, приключения, 2017] WEB-DL 1080p, Dub [iTunes]

salma3

0 | 0

3.26 ГБ


Начать новую тему Ответить на тему  [ 1 сообщение ] 




Для Мосгорсуда, Роскомнадзора и рекламодателей:: rstracker[собака]yandex.ru
cron