COVID-19 - Последняя информация о коронавирусе на сайте Минздрава




Торрент файл
скачать торрент магнет ссылка Добавлен: 15 окт 2019, 11:32
Размер: 2.54 ГБ
Сидеров: 0
Личеров: 0
Статус: (salma3)
Автор

СообщениеДобавлено: 15 окт 2019, 11:32 

Не в сети
Супермодератор
Аватара пользователя
Дата регистрации:
15 фев 2012, 16:44
Возраст: 31
Спасибо: 8280 / 2148
Сообщения: 96711
Год выпуска: 2018
Жанр: мультфильм, семейный
Режиссер: Лизе И. Осволл

Роли озвучивали: Марит Андреассен, Ода Осволл Аватсмарк, Матс Элдоэн, Хенриетта Фэй-Шолль, Шарлотта Фрогнер, Стиг Дж. Хаген

Описание: Корова по имени Клара живет в городе и мечтает стать большой звездой. На летние каникулы она приезжает погостить к родителям на ферму. Там она решает прославить ферму став лучшим кулинаром. Вместе с друзьями, местными жителями: бычком — рэпером Гутом, курицей Чикколиной и другими она приступает к работе, хотя кое-кто, в этом, ей хочет помешать...



Страна: Норвегия
Продолжительность: 01:06:21
Перевод:Профессиональный (полное дублирование)[iTunes]

Качество: WEB-DL 1080p
Видео: 1920x1038 (1.85:1), 24.000 fps, MPEG-4 AVC ~5 120 kbps avg
Аудио: 48.0 kHz, AC3 Dolby Digital, 3/2 (L,C,R,l,r) + LFE ch, ~384 kbps

General
Уникальный идентификатор : 222821970367977203519781912566817115284 (0xA7A1F353F637F6EF87376A32A4284C94)
Полное имя : Veselaya.ferma.2018.WEB-DL.1080p.ELEKTRI4KA.UNIONGANG.mkv
Формат : Matroska
Версия формата : Version 4 / Version 2
Размер файла : 2.54 GiB
Продолжительность : 1 h 6 min
Общий поток : 5 487 kb/s
Дата кодирования : UTC 2019-10-12 20:19:33
Программа кодирования : mkvmerge v8.3.0 ('Over the Horizon') 64bit
Библиотека кодирования : libebml v1.3.1 + libmatroska v1.4.2

Video
Идентификатор : 1
Формат : AVC
Формат/Информация : Advanced Video Codec
Профиль формата : High@L4
Настройки формата : CABAC / 4 Ref Frames
Параметр CABAC формата : Yes
Параметр RefFrames формата : 4 frames
Идентификатор кодека : V_MPEG4/ISO/AVC
Продолжительность : 1 h 6 min
Битрейт : 5 120 kb/s
Ширина : 1 920 pixels
Высота : 1 038 pixels
Соотношение сторон : 1.85:1
Режим частоты кадров : Constant
Частота кадров : 24.000 FPS
Цветовое пространство : YUV
Субдискретизация насыщенности : 4:2:0
Битовая глубина : 8 bits
Тип развёртки : Progressive
Бит/(Пиксели*Кадры) : 0.107
Размер потока : 2.36 GiB (93%)
Заголовок : ELEKTRI4KA
Библиотека кодирования : x264 core 148
Настройки программы : cabac=1 / ref=3 / deblock=1:0:0 / analyse=0x3:0x113 / me=hex / subme=7 / psy=1 / psy_rd=1.00:0.00 / mixed_ref=1 / me_range=16 / chroma_me=1 / trellis=1 / 8x8dct=1 / cqm=0 / deadzone=21,11 / fast_pskip=1 / chroma_qp_offset=-2 / threads=24 / lookahead_threads=4 / sliced_threads=0 / nr=0 / decimate=1 / interlaced=0 / bluray_compat=0 / constrained_intra=0 / bframes=6 / b_pyramid=2 / b_adapt=1 / b_bias=0 / direct=1 / weightb=1 / open_gop=0 / weightp=2 / keyint=48 / keyint_min=25 / scenecut=0 / intra_refresh=0 / rc_lookahead=40 / rc=2pass / mbtree=1 / bitrate=5120 / ratetol=1.0 / qcomp=0.60 / qpmin=0 / qpmax=69 / qpstep=4 / cplxblur=20.0 / qblur=0.5 / vbv_maxrate=7680 / vbv_bufsize=20480 / nal_hrd=none / filler=0 / ip_ratio=1.40 / aq=1:1.00
Язык : English
Default : Yes
Forced : No

Audio
Идентификатор : 2
Формат : AC-3
Формат/Информация : Audio Coding 3
Идентификатор кодека : A_AC3
Продолжительность : 1 h 6 min
Вид битрейта : Constant
Битрейт : 384 kb/s
Каналы : 6 channels
Расположение каналов : Front: L C R, Side: L R, LFE
Частота : 48.0 kHz
Частота кадров : 31.250 FPS (1536 SPF)
Битовая глубина : 16 bits
Метод сжатия : Lossy
Размер потока : 182 MiB (7%)
Заголовок : iTunes
Язык : Russian
Default : Yes
Forced : No


_________________
Проголосуй за трекер Открытый торрент трекер - RUS-MEDIA.ORG

Проголосуй Открытый торрент трекер - RUS-MEDIA.ORG


Скачать книги и аудио книги через торрент


Вернуться к началу
 Профиль Отправить личное сообщение  
 
   Похожие торренты   Автор   Торрент   Размер 
В этой теме нет новых непрочитанных сообщений. Весёлая ферма / KuToppen [мультфильм, семейный, 2018] WEB-DLRip, Dub [iTunes]

salma3

0 | 2

1.08 ГБ

В этой теме нет новых непрочитанных сообщений. Велотачки / Bikes [мультфильм, семейный, спорт, 2018] WEB-DL 1080p, Dub [iTunes]

salma3

0 | 1

3.21 ГБ

В этой теме нет новых непрочитанных сообщений. Велотачки / Bikes [мультфильм, семейный, спорт, 2018] WEB-DLRip, Dub [iTunes]

salma3

4 | 0

1.46 ГБ

В этой теме нет новых непрочитанных сообщений. Принцесса Эмми / Princess Emmy [Мультфильм, семейный, 2019] WEB-DL 1080p, Dub [iTunes]

salma3

6 | 4

3.02 ГБ

В этой теме нет новых непрочитанных сообщений. Эллиот / Elliot the Littlest Reindeer [мультфильм, семейный, 2018] WEB-DLRip 720p, Dub [iTunes]

salma3

0 | 0

1.68 ГБ

В этой теме нет новых непрочитанных сообщений. Сельма в городе призраков / Dia de Muertos [Мультфильм, фэнтези, семейный, 2019] WEB-DL 1080p, Dub [iTunes]

salma3

0 | 0

3.03 ГБ

В этой теме нет новых непрочитанных сообщений. Ковёр-самолёт / Hodja fra Pjort [Мультфильм, семейный, 2018] BDRemux 1080p, Dub [iTunes]

salma3

0 | 0

18.72 ГБ


Начать новую тему Ответить на тему  [ 1 сообщение ] 




Для Мосгорсуда, Роскомнадзора и рекламодателей:: rstracker[собака]yandex.ru
cron