COVID-19 - Последняя информация о коронавирусе на сайте Минздрава




Торрент файл
скачать торрент магнет ссылка Добавлен: 15 окт 2019, 11:30
Размер: 1.08 ГБ
Сидеров: 0
Личеров: 2
Статус: (salma3)
Автор

СообщениеДобавлено: 15 окт 2019, 11:30 

Не в сети
Супермодератор
Аватара пользователя
Дата регистрации:
15 фев 2012, 16:44
Возраст: 31
Спасибо: 8273 / 2148
Сообщения: 96527
Год выпуска: 2018
Жанр: мультфильм, семейный
Режиссер: Лизе И. Осволл

Роли озвучивали: Марит Андреассен, Ода Осволл Аватсмарк, Матс Элдоэн, Хенриетта Фэй-Шолль, Шарлотта Фрогнер, Стиг Дж. Хаген

Описание: Корова по имени Клара живет в городе и мечтает стать большой звездой. На летние каникулы она приезжает погостить к родителям на ферму. Там она решает прославить ферму став лучшим кулинаром. Вместе с друзьями, местными жителями: бычком — рэпером Гутом, курицей Чикколиной и другими она приступает к работе, хотя кое-кто, в этом, ей хочет помешать...



Страна: Норвегия
Продолжительность: 01:06:21
Перевод:Профессиональный (полное дублирование)[iTunes]

Качество: WEB-DLRip
Видео: 720x384 (1.85:1), 24.000 fps, XviD build 73 ~1 946 kbps avg
Аудио: 48.0 kHz, AC3 Dolby Digital, 3/2 (L,C,R,l,r) + LFE ch, ~384 kbps

General
Формат : AVI
Формат/Информация : Audio Video Interleave
Размер файла : 1,08 Гбайт
Продолжительность : 1 ч. 6 м.
Общий поток : 2339 Кбит/сек
Название фильма : Весёлая ферма_2018_WEB-DLRip
Программа кодирования : VirtualDubMod 1.5.10.3 | (build 2550/release)
Авторское право : порошков

Видео
Идентификатор : 0
Формат : MPEG-4 Visual
Профиль формата : Advanced Simple@L5
Настройки формата : BVOP1 / Custom Matrix
Параметр BVOP формата : 1
Параметр QPel формата : Нет
Параметр GMC формата : Без точки перехода
Параметр матрицы формата : Выборочная
Идентификатор кодека : XVID
Идентификатор кодека/Подсказка : XviD
Продолжительность : 1 ч. 6 м.
Битрейт : 1946 Кбит/сек
Ширина : 720 пикселей
Высота : 384 пикселя
Соотношение сторон : 1,85:1
Частота кадров : 24,000 кадра/сек
Цветовое пространство : YUV
Субдискретизация насыщенности : 4:2:0
Битовая глубина : 8 бит
Тип развёртки : Прогрессивная
Метод сжатия : С потерями
Бит/(Пиксели*Кадры) : 0.293
Размер потока : 923 Мбайт (83%)
Библиотека кодирования : XviD 73

Аудио
Идентификатор : 1
Формат : AC-3
Формат/Информация : Audio Coding 3
Коммерческое название : Dolby Digital
Идентификатор кодека : 2000
Продолжительность : 1 ч. 6 м.
Вид битрейта : Постоянный
Битрейт : 384 Кбит/сек
Каналы : 6 каналов
ChannelLayout : L R C LFE Ls Rs
Частота : 48,0 КГц
Частота кадров : 31,250 кадров/сек (1536 SPF)
Метод сжатия : С потерями
Размер потока : 182 Мбайт (16%)
Выравнивание : Разделение по промежуткам
Продолжительность промежутка : 42 мс. (1,00 видеокадр)
Время предзагрузки промежутка : 500 мс.

Релиз от: порошков


_________________
Проголосуй за трекер Открытый торрент трекер - RUS-MEDIA.ORG

Проголосуй Открытый торрент трекер - RUS-MEDIA.ORG


Скачать книги и аудио книги через торрент


Вернуться к началу
 Профиль Отправить личное сообщение  
 
   Похожие торренты   Автор   Торрент   Размер 
В этой теме нет новых непрочитанных сообщений. Весёлая ферма / KuToppen [мультфильм, семейный, 2018] WEB-DL 1080p, Dub [iTunes]

salma3

0 | 0

2.54 ГБ

В этой теме нет новых непрочитанных сообщений. Велотачки / Bikes [мультфильм, семейный, спорт, 2018] WEB-DLRip, Dub [iTunes]

salma3

4 | 0

1.46 ГБ

В этой теме нет новых непрочитанных сообщений. Эллиот / Elliot the Littlest Reindeer [мультфильм, семейный, 2018] WEB-DLRip 720p, Dub [iTunes]

salma3

0 | 0

1.68 ГБ

В этой теме нет новых непрочитанных сообщений. Капитан семи морей / Capt'n Sharky [Мультфильм, мюзикл, боевик, комедия, приключения, семейный, 2018] WEB-DLRip, Dub | [iTunes]

NTL

1 | 0

743.87 МБ

В этой теме нет новых непрочитанных сообщений. Королевские каникулы / Trouble [Мультфильм, комедия, семейный, 2019] WEB-DLRip, Dub [iTunes]

salma3

2960 | 114

1.46 ГБ

В этой теме нет новых непрочитанных сообщений. Сельма в городе призраков / Dia de Muertos [Мультфильм, фэнтези, семейный, 2019] WEB-DLRip, Dub [iTunes]

salma3

0 | 4

1.46 ГБ

В этой теме нет новых непрочитанных сообщений. Плюшевый монстр / Lino: Uma Aventura de Sete Vidas [мультфильм, семейный, 2017] WEB-DLRip, Dub [iTunes]

salma3

4 | 6

698.97 МБ


Начать новую тему Ответить на тему  [ 1 сообщение ] 




Для Мосгорсуда, Роскомнадзора и рекламодателей:: rstracker[собака]yandex.ru
cron