COVID-19 - Последняя информация о коронавирусе на сайте Минздрава




Торрент файл
скачать торрент магнет ссылка Добавлен: 05 окт 2019, 18:05
Размер: 6.33 ГБ
Сидеров: 10
Личеров: 3
Статус: (salma3)
Автор

СообщениеДобавлено: 05 окт 2019, 18:05 

Не в сети
Аватара пользователя
Дата регистрации:
17 май 2019, 21:15
Возраст: 23
Спасибо: 5 / 0
Сообщения: 262
Год выхода: 2015
Страна / Студия: США / Pixar Animation Studios, Walt Disney Pictures
Жанр: мультфильм, фэнтези, драма, комедия, приключения, семейный
Продолжительность: 01:33:50
Перевод: Дублированный (Лицензия)
Режиссер: Питер Сон

Описание: По сюжету динозавры не вымерли, а эволюционировали в разумных существ и живут и здравствуют на Земле. А вот люди остались на довольно примитивной стадии развития. Фильм расскажет историю дружбы динозавра и маленького мальчика.

Качество: BDRip 1080p
Видео: HEVC/H.265, 1920x804, ~7937 Kbps
Аудио 1: AC3, 6 ch, 640 Kbps - Русский, дублированный
Аудио 2: AC3, 6 ch, 448 Kbps - Украинский, дублированный
Аудио 3: AC3, 6 ch, 640 Kbps - Английский
Субтитры: Русские (форсированные), английские



Общее
Уникальный идентификатор : 70697841363561319267197532651944755652 (0x352FE8B229E76DED1280BC17866141C4)
Полное имя : R:The Good Dinosaur (2015) BDRip 1080p [HEVC].mkv
Формат : Matroska
Версия формата : Version 4 / Version 2
Размер файла : 6,33 Гбайт
Продолжительность : 1 ч. 33 м.
Общий поток : 9664 Кбит/сек
Название фильма : The Good Dinosaur (2015)
Дата кодирования : UTC 2019-10-04 12:51:05
Программа кодирования : mkvmerge v28.2.0 ('The Awakening') 64-bit
Библиотека кодирования : libebml v1.3.6 + libmatroska v1.4.9
Обложка : Yes
Attachments : cover.jpg

Видео
Идентификатор : 1
Формат : HEVC
Формат/Информация : High Efficiency Video Coding
Профиль формата : Main 10@L4.1@High
Идентификатор кодека : V_MPEGH/ISO/HEVC
Продолжительность : 1 ч. 33 м.
Битрейт : 7937 Кбит/сек
Ширина : 1920 пикселей
Высота : 804 пикселя
Соотношение сторон : 2,40:1
Режим частоты кадров : Постоянный
Частота кадров : 23,976 (23976/1000) кадра/сек
Частота кадров в оригинале : 23,976 (24000/1001) кадра/сек
Цветовое пространство : YUV
Субдискретизация насыщенности : 4:2:0
Битовая глубина : 10 бит
Бит/(Пиксели*Кадры) : 0.214
Размер потока : 5,20 Гбайт (82%)
Библиотека кодирования : x265 3.1.2+1-76650bab70f9:[Windows][MSVC 1922][64 bit] 10bit
Настройки программы : cpuid=1111039 / frame-threads=3 / numa-pools=12 / wpp / no-pmode / no-pme / no-psnr / no-ssim / log-level=2 / input-csp=1 / input-res=1920x804 / interlace=0 / total-frames=126562 / level-idc=41 / high-tier=1 / uhd-bd=0 / ref=5 / no-allow-non-conformance / no-repeat-headers / annexb / no-aud / no-hrd / info / hash=0 / no-temporal-layers / open-gop / min-keyint=23 / keyint=240 / gop-lookahead=0 / bframes=9 / b-adapt=2 / b-pyramid / bframe-bias=0 / rc-lookahead=60 / lookahead-slices=4 / scenecut=40 / radl=0 / no-splice / no-intra-refresh / ctu=32 / min-cu-size=8 / rect / amp / max-tu-size=32 / tu-inter-depth=4 / tu-intra-depth=4 / limit-tu=1 / rdoq-level=2 / dynamic-rd=0.00 / no-ssim-rd / signhide / no-tskip / nr-intra=0 / nr-inter=0 / no-constrained-intra / no-strong-intra-smoothing / max-merge=4 / limit-refs=2 / limit-modes / me=3 / subme=7 / merange=57 / temporal-mvp / weightp / weightb / no-analyze-src-pics / deblock=-3:-3 / no-sao / no-sao-non-deblock / rd=6 / no-early-skip / no-rskip / no-fast-intra / no-tskip-fast / no-cu-lossless / no-b-intra / no-splitrd-skip / rdpenalty=0 / psy-rd=2.00 / psy-rdoq=1.00 / no-rd-refine / no-lossless / cbqpoffs=0 / crqpoffs=0 / rc=crf / crf=19.0 / qcomp=0.70 / qpstep=4 / stats-write=0 / stats-read=0 / vbv-maxrate=50000 / vbv-bufsize=50000 / vbv-init=0.9 / crf-max=0.0 / crf-min=0.0 / ipratio=1.40 / pbratio=1.30 / aq-mode=1 / aq-strength=1.00 / no-cutree / zone-count=0 / no-strict-cbr / qg-size=32 / no-rc-grain / qpmax=69 / qpmin=0 / no-const-vbv / sar=1 / overscan=0 / videoformat=5 / range=0 / colorprim=1 / transfer=1 / colormatrix=1 / chromaloc=0 / display-window=0cll=0,0 / min-luma=0 / max-luma=1023 / log2-max-poc-lsb=8 / vui-timing-info / vui-hrd-info / slices=1 / no-opt-qp-pps / no-opt-ref-list-length-pps / no-multi-pass-opt-rps / scenecut-bias=0.05 / no-opt-cu-delta-qp / no-aq-motion / no-hdr / no-hdr-opt / no-dhdr10-opt / no-idr-recovery-sei / analysis-reuse-level=5 / scale-factor=0 / refine-intra=0 / refine-inter=0 / refine-mv=0 / refine-ctu-distortion=0 / no-limit-sao / ctu-info=0 / no-lowpass-dct / refine-analysis-type=0 / copy-pic=1 / max-ausize-factor=1.0 / no-dynamic-refine / no-single-sei / no-hevc-aq / no-svt / no-field / qp-adaptation-range=1.00
Default : Да
Forced : Нет
Цветовой диапазон : Limited
Основные цвета : BT.709
Характеристики трансфера : BT.709
Коэффициенты матрицы : BT.709

Аудио #1
Идентификатор : 2
Формат : AC-3
Формат/Информация : Audio Coding 3
Идентификатор кодека : A_AC3
Продолжительность : 1 ч. 33 м.
Вид битрейта : Постоянный
Битрейт : 640 Кбит/сек
Каналы : 6 каналов
Расположение каналов : Front: L C R, Side: L R, LFE
Частота : 48,0 КГц
Частота кадров : 31,250 кадров/сек (1536 SPF)
Битовая глубина : 16 бит
Метод сжатия : С потерями
Размер потока : 429 Мбайт (7%)
Заголовок : Дубляж - BD Eur
Язык : Russian
ServiceKind/ : Complete Main
Default : Да
Forced : Нет

Аудио #2
Идентификатор : 3
Формат : AC-3
Формат/Информация : Audio Coding 3
Идентификатор кодека : A_AC3
Продолжительность : 1 ч. 33 м.
Вид битрейта : Постоянный
Битрейт : 448 Кбит/сек
Каналы : 6 каналов
Расположение каналов : Front: L C R, Side: L R, LFE
Частота : 48,0 КГц
Частота кадров : 31,250 кадров/сек (1536 SPF)
Битовая глубина : 16 бит
Метод сжатия : С потерями
Размер потока : 300 Мбайт (5%)
Язык : Ukrainian
ServiceKind/ : Complete Main
Default : Нет
Forced : Нет

Аудио #3
Идентификатор : 4
Формат : AC-3
Формат/Информация : Audio Coding 3
Идентификатор кодека : A_AC3
Продолжительность : 1 ч. 33 м.
Вид битрейта : Постоянный
Битрейт : 640 Кбит/сек
Каналы : 6 каналов
Расположение каналов : Front: L C R, Side: L R, LFE
Частота : 48,0 КГц
Частота кадров : 31,250 кадров/сек (1536 SPF)
Битовая глубина : 16 бит
Метод сжатия : С потерями
Размер потока : 429 Мбайт (7%)
Заголовок : Original - BD 3D
Язык : English
ServiceKind/ : Complete Main
Default : Нет
Forced : Нет

Текст #1
Идентификатор : 5
Формат : UTF-8
Идентификатор кодека : S_TEXT/UTF8
Идентификатор кодека/Информация : UTF-8 Plain Text
Продолжительность : 1 м. 13 с.
Битрейт : 13 бит/сек
ElementCount : 3
Размер потока : 125 байт (0%)
Заголовок : Русские Форсированные
Язык : Russian
Default : Да
Forced : Нет

Текст #2
Идентификатор : 6
Формат : UTF-8
Идентификатор кодека : S_TEXT/UTF8
Идентификатор кодека/Информация : UTF-8 Plain Text
Продолжительность : 1 ч. 31 м.
Битрейт : 35 бит/сек
ElementCount : 885
Размер потока : 24,0 Кбайт (0%)
Язык : English
Default : Нет
Forced : Нет

Меню
00:00:00.000 : :1. Asteroid
00:03:37.966 : :2. Arlo Is Born
00:06:16.459 : :3. Chores
00:08:14.160 : :4. Make Your Mark
00:12:12.605 : :5. Fireflies
00:14:33.913 : :6. Meet Spot
00:17:42.352 : :7. Arlo Steps Up
00:21:10.644 : :8. Swept Away
00:22:58.167 : :9. Wilderness
00:26:41.057 : :10. Helpless
00:29:02.615 : :11. Spot Investigates
00:33:10.363 : :12. Snake Attack
00:35:28.668 : :13. Pet Collector
00:38:14.458 : :14. Working Together
00:41:08.840 : :15. Orphan Spot
00:45:42.947 : :16. Storm Fear
00:47:47.947 : :17. Ambush
00:51:48.271 : :18. T-Rexes
00:55:46.967 : :19. Rustlers
01:00:22.952 : :20. Campfire
01:03:59.001 : :21. Arlo Herds
01:05:27.213 : :22. Above the Clouds
01:07:11.777 : :23. Spot Taken
01:11:06.427 : :24. Pappa's Help
01:13:43.377 : :25. Into the Storm
01:16:01.430 : :26. Flash Flood
01:19:08.493 : :27. Goodbye Spot
01:23:56.864 : :28. Back Home
01:26:01.113 : :29. End Credits



Скачать книги и аудио книги через торрент


Вернуться к началу
 Профиль Отправить личное сообщение  
 
   Похожие торренты   Автор   Торрент   Размер 
В этой теме нет новых непрочитанных сообщений. Мой любимый динозавр / My Pet Dinosaur [боевик, приключения, семейный, 2017] BDRip, Dub [Лицензия]

salma3

0 | 1

1.46 ГБ

В этой теме нет новых непрочитанных сообщений. Мой любимый динозавр / My Pet Dinosaur [боевик, приключения, семейный, 2017] BDRip, Dub [Лицензия]

salma3

0 | 0

1.45 ГБ

В этой теме нет новых непрочитанных сообщений. Мой любимый динозавр / My Pet Dinosaur [боевик, приключения, семейный, 2017] BDRip 1080p, Dub [iTunes]

salma3

16 | 2

8.91 ГБ

В этой теме нет новых непрочитанных сообщений. Мой любимый динозавр / My Pet Dinosaur [Боевик, приключения, семейный, 2017] HDRip, Dub [iTunes]

salma3

0 | 0

746.21 МБ

В этой теме нет новых непрочитанных сообщений. Мой любимый динозавр / My Pet Dinosaur [Боевик, приключения, семейный, 2017] HDRip, Dub [iTunes]

salma3

2126 | 80

1.46 ГБ

В этой теме нет новых непрочитанных сообщений. Мой любимый динозавр / My Pet Dinosaur [боевик, приключения, семейный, 2017] HDRip, Dub [iTunes]

salma3

0 | 0

1.37 ГБ

В этой теме нет новых непрочитанных сообщений. Хороший лжец / The Good Liar [Комедия, приключения, 2019] BDRip 1080p, Dub [iTunes]

salma3

0 | 0

9.57 ГБ


Начать новую тему Ответить на тему  [ 1 сообщение ] 




Для Мосгорсуда, Роскомнадзора и рекламодателей:: rstracker[собака]yandex.ru
cron