Торрент файл
скачать торрент магнет ссылка Добавлен: 01 окт 2019, 20:08
Размер: 5.28 ГБ
Сидеров: 0
Личеров: 0
Статус: (salma3)
Автор

СообщениеДобавлено: 01 окт 2019, 20:08 

Не в сети
Супермодератор
Аватара пользователя
Дата регистрации:
15 фев 2012, 16:44
Возраст: 32
Спасибо: 8320 / 2148
Сообщения: 97229
Год выхода: 2016
Жанр: Мультфильм, приключения
Режиссер: Хуан Цзяньмин

Роли дублировали: Диомид Виноградов, Александр Груздев, Александр Коврижных, Борис Токарев, Владимир Антоник, Дарья Фролова, Иван Калинин, Никита Прозоровский, Прохор Чеховской

О фильме:
События картины разворачиваются вокруг очаровательного и харизматичного ежика по имени Бобби. Правда, он забыл абсолютно всё. Невероятно, но факт: проснулся в лесу, не смог ничего припомнить. Отчего могло это приключиться? Теперь его очень беспокоит данный вопрос, на который никто из животных не может найти ответа. Дело в том, что местные его не знают, да и ему они не знакомы. И вот теперь маленький колючий герой решает во что бы то ни стало выяснить, что же на самом деле произошло и кто он такой. Восстановить память как оказалось, довольно не просто, а также вспомнить, кто его семья. Но до открытия тайны далеко, ему придется бегать по мегаполису, лазить по горам и по джунглям. Что же поможет Бобби узнать его тайну? Может он повстречает сородичей, которые ему все поведают? Эти и другие вопросы мы сможем разгадать вместе с главными героями, посмотрев мультфильм.



Страна: Китай, США
Продолжительность: 01:34:06
Перевод: Дублированный

Файл
Кодек: AVC
Качество: WEB-DL 1080p
Видео: MPEG-4 AVC, 7150 Mбит/с, 1920x1080, 23.976 кадр/с
Аудио #1: Русский (АС3, 2 ch, 256 Кбит/с, 48.0 KHz)
Аудио #2: Английский (E-АС3, 6 ch, 640 Кбит/с, 48.0 KHz)
Субтитры: Aнглийские (SDH)

Источник: Bobby.The.Hedgehog.2016.1080p.NF.WEB-DL.x264-iKA
General
Unique ID : 210951990453171768617706535864466964413 (0x9EB3E0225A5F11D79B0752E4F9A47FBD)
Complete name : Bobby.The.Hedgehog.2016.NF.WEB-DL.1080p.mkv
Format : Matroska
Format version : Version 4
File size : 5.28 GiB
Duration : 1 h 34 min
Overall bit rate mode : Variable
Overall bit rate : 8 031 kb/s
Encoded date : UTC 2019-10-01 10:53:59
Writing application : mkvmerge v7.1.0 ('Good Love') 64bit built on Jul 27 2014 13:06:55
Writing library : libebml v1.3.0 + libmatroska v1.4.1

Video
ID : 1
Format : AVC
Format/Info : Advanced Video Codec
Format profile : Main@L4
Format settings : CABAC / 3 Ref Frames
Format settings, CABAC : Yes
Format settings, Reference fra : 3 frames
Codec ID : V_MPEG4/ISO/AVC
Duration : 1 h 34 min
Bit rate mode : Variable
Bit rate : 7 150 kb/s
Maximum bit rate : 10.7 Mb/s
Width : 1 920 pixels
Height : 1 080 pixels
Display aspect ratio : 16:9
Frame rate mode : Constant
Frame rate : 23.976 (24000/1001) FPS
Color space : YUV
Chroma subsampling : 4:2:0
Bit depth : 8 bits
Scan type : Progressive
Bits/(Pixel*Frame) : 0.144
Stream size : 4.69 GiB (89%)
Writing library : x264 core 148 r2715 7e75228
Encoding settings : cabac=1 / ref=3 / deblock=1:0:0 / analyse=0x1:0x111 / me=umh / subme=10 / psy=1 / psy_rd=1.00:0.00 / mixed_ref=1 / me_range=24 / chroma_me=1 / trellis=2 / 8x8dct=0 / cqm=0 / deadzone=21,11 / fast_pskip=1 / chroma_qp_offset=-2 / threads=6 / lookahead_threads=1 / sliced_threads=0 / nr=0 / decimate=1 / interlaced=0 / bluray_compat=0 / stitchable=1 / constrained_intra=0 / bframes=2 / b_pyramid=0 / b_adapt=2 / b_bias=0 / direct=3 / weightb=1 / open_gop=0 / weightp=2 / keyint=48 / keyint_min=25 / scenecut=0 / intra_refresh=0 / rc_lookahead=48 / rc=2pass / mbtree=1 / bitrate=7150 / ratetol=1.0 / qcomp=0.50 / qpmin=6 / qpmax=51 / qpstep=4 / cplxblur=20.0 / qblur=0.5 / vbv_maxrate=10725 / vbv_bufsize=14300 / nal_hrd=vbr / filler=0 / ip_ratio=1.40 / aq=1:1.00
Language : English
Default : Yes
Forced : No

Audio #1
ID : 2
Format : AC-3
Format/Info : Audio Coding 3
Commercial name : Dolby Digital
Codec ID : A_AC3
Duration : 1 h 34 min
Bit rate mode : Constant
Bit rate : 256 kb/s
Channel(s) : 2 channels
Channel layout : L R
Sampling rate : 48.0 kHz
Frame rate : 31.250 FPS (1536 SPF)
Bit depth : 16 bits
Compression mode : Lossy
Stream size : 172 MiB (3%)
Title : DUB
Language : Russian
Service kind : Complete Main
Default : Yes
Forced : No

Audio #2
ID : 3
Format : E-AC-3
Format/Info : Enhanced AC-3
Commercial name : Dolby Digital Plus
Codec ID : A_EAC3
Duration : 1 h 34 min
Bit rate mode : Constant
Bit rate : 640 kb/s
Channel(s) : 6 channels
Channel layout : L R C LFE Ls Rs
Sampling rate : 48.0 kHz
Frame rate : 31.250 FPS (1536 SPF)
Compression mode : Lossy
Stream size : 431 MiB (8%)
Language : English
Service kind : Complete Main
Default : No
Forced : No

Text
ID : 4
Format : UTF-8
Codec ID : S_TEXT/UTF8
Codec ID/Info : UTF-8 Plain Text
Duration : 1 h 32 min
Bit rate : 75 b/s
Count of elements : 1730
Stream size : 51.3 KiB (0%)
Title : SDH
Language : English
Default : No
Forced : No


_________________
Проголосуй за трекер Открытый торрент трекер - RUS-MEDIA.ORG

Проголосуй Открытый торрент трекер - RUS-MEDIA.ORG


Вернуться к началу
 Профиль Отправить личное сообщение  
 
   Похожие торренты   Автор   Торрент   Размер 
В этой теме нет новых непрочитанных сообщений. Соник в кино / Sonic the Hedgehog [Фантастика, комедия, приключения, 2020] WEB-DLRip, Dub [iTunes]

salma3

0 | 0

746.27 МБ

В этой теме нет новых непрочитанных сообщений. В поисках Бобби Фишера / Выбор игры / Searching for Bobby Fischer [Драма, биография, 1993] WEB-DL 1080p, Mvo

salma3

0 | 0

11.86 ГБ

В этой теме нет новых непрочитанных сообщений. Братья Медведи: Тайна трёх миров / Boonie Bears: Entangled Worlds [Мультфильм, комедия, приключения, 2017] WEB-DL 1080p, Dub [iTunes]

salma3

3 | 1

2.86 ГБ

В этой теме нет новых непрочитанных сообщений. Клара и волшебный дракон / Клара та Чарівний Дракон [Мультфильм, комедия, приключения, 2019] WEB-DL 1080p, Dub [iTunes]

salma3

0 | 1

2.99 ГБ

В этой теме нет новых непрочитанных сообщений. Большое путешествие [Мультфильм, комедия, приключения, 2019] WEB-DL 1080p [iTunes]

salma3

4 | 2

2.77 ГБ

В этой теме нет новых непрочитанных сообщений. Пушистый шпион / Marnies Welt [мультфильм, приключения, 2018] WEB-DLRip 720p, Dub [iTunes]

salma3

0 | 0

1.53 ГБ

В этой теме нет новых непрочитанных сообщений. Спасатели / Wan ou qi bing / T-Guardians [Мультфильм, приключения, детский, 2017] WEB-DLRip, Dub [iTunes]

salma3

4 | 2

1.46 ГБ


Начать новую тему Ответить на тему  [ 1 сообщение ] 




Для Мосгорсуда, Роскомнадзора и рекламодателей:: rstracker[собака]yandex.ru
cron