Торрент файл
скачать торрент магнет ссылка Добавлен: 07 авг 2019, 20:18
Размер: 5.37 ГБ
Сидеров: 0
Личеров: 0
Статус: (salma3)
Автор

СообщениеДобавлено: 07 авг 2019, 20:18 

Не в сети
Супермодератор
Аватара пользователя
Дата регистрации:
15 фев 2012, 16:44
Возраст: 30
Спасибо: 8131 / 2147
Сообщения: 94810
Год выхода: 2019
Жанр: мультфильм, комедия, семейный
Режиссер: Винсент Кестелут, Бен Стассен

В ролях: Расти Шэклфорд, Джо Уайатт, Leo Barakat, Джейн Алан, Дино Андраде, Джои Камен, Николь Шерман, Кирк Торнтон, Мэдисон Браун, Камила Родс

О фильме: Любимая порода собак у очень богатых и влиятельных людей — это корги. Маленькие собачки полностью погружены в жизнь своих больших хозяев. Спасаясь от политических интриг, любимец Британской Королевы вынужден покинуть Букингемский дворец. Теперь ему предстоит не только познакомиться с тайной жизнью улиц Лондона, но и доказать, что он настоящий Королевский Корги…



Страна: Бельгия
Продолжительность: 01:25:17
Перевод:Профессиональный (дублированный)[iTunes]

Файл
Кодек: H.265
Качество: BDRip-HEVC 1080p
Видео: HEVC, 1920x1080 (16:9), 24.000 fps, 6 734 kb/s, 10 bit
Аудио 1: AC3, 48.0 kHz, 6 ch, 384 Kbps | RUS (iTunes)
Аудио 2: AC3, 48.0 kHz, 6 ch, 384 Kbps | UKR (iTunes)
Аудио 3: DTS, 48.0 kHz, 6 ch, 1509 Kbps | ENG (Оригинал)
Субтитры: Русские, английские

General
Unique ID : 248758910947048098503879604387663494447 (0xBB25393ABE634ECE806CA7ECC44ABD2F)
Complete name : The Queens Corgi.(2019).BDRip.1080p.HEVC.mkv
Format : Matroska
Format version : Version 4
File size : 5.37 GiB
Duration : 1 h 25 min
Overall bit rate : 9 013 kb/s
Encoded date : UTC 2019-08-07 12:53:01
Writing application : mkvmerge v8.3.0 ('Over the Horizon') 64bit
Writing library : libebml v1.3.1 + libmatroska v1.4.2

Video
ID : 1
Format : HEVC
Format/Info : High Efficiency Video Coding
Format profile : Main 10@L4.1@High
Codec ID : V_MPEGH/ISO/HEVC
Duration : 1 h 25 min
Bit rate : 6 734 kb/s
Width : 1 920 pixels
Height : 1 080 pixels
Display aspect ratio : 16:9
Frame rate mode : Constant
Frame rate : 24.000 FPS
Color space : YUV
Chroma subsampling : 4:2:0
Bit depth : 10 bits
Bits/(Pixel*Frame) : 0.135
Stream size : 4.01 GiB (75%)
Language : English
Default : Yes
Forced : No
Color range : Limited
Color primaries : BT.709
Transfer characteristics : BT.709
Matrix coefficients : BT.709

Audio #1
ID : 2
Format : AC-3
Format/Info : Audio Coding 3
Commercial name : Dolby Digital
Codec ID : A_AC3
Duration : 1 h 25 min
Bit rate mode : Constant
Bit rate : 384 kb/s
Channel(s) : 6 channels
Channel layout : L R C LFE Ls Rs
Sampling rate : 48.0 kHz
Frame rate : 31.250 FPS (1536 SPF)
Bit depth : 16 bits
Compression mode : Lossy
Stream size : 234 MiB (4%)
Title : DUB (iTunes)
Language : Russian
Default : Yes
Forced : No

Audio #2
ID : 3
Format : AC-3
Format/Info : Audio Coding 3
Commercial name : Dolby Digital
Codec ID : A_AC3
Duration : 1 h 25 min
Bit rate mode : Constant
Bit rate : 384 kb/s
Channel(s) : 6 channels
Channel layout : L R C LFE Ls Rs
Sampling rate : 48.0 kHz
Frame rate : 31.250 FPS (1536 SPF)
Bit depth : 16 bits
Compression mode : Lossy
Stream size : 234 MiB (4%)
Title : DUB (iTunes)
Language : Ukrainian
Default : No
Forced : No

Audio #3
ID : 4
Format : DTS
Format/Info : Digital Theater Systems
Codec ID : A_DTS
Duration : 1 h 25 min
Bit rate mode : Constant
Bit rate : 1 509 kb/s
Channel(s) : 6 channels
Channel layout : C L R Ls Rs LFE
Sampling rate : 48.0 kHz
Frame rate : 93.750 FPS (512 SPF)
Bit depth : 16 bits
Compression mode : Lossy
Stream size : 920 MiB (17%)
Language : English
Default : No
Forced : No

Text #1
ID : 5
Format : UTF-8
Codec ID : S_TEXT/UTF8
Codec ID/Info : UTF-8 Plain Text
Duration : 1 h 20 min
Bit rate : 90 b/s
Count of elements : 953
Stream size : 53.4 KiB (0%)
Title : Full
Language : Russian
Default : No
Forced : No

Text #2
ID : 6
Format : UTF-8
Codec ID : S_TEXT/UTF8
Codec ID/Info : UTF-8 Plain Text
Duration : 1 h 18 min
Bit rate : 56 b/s
Count of elements : 999
Stream size : 32.6 KiB (0%)
Title : Full
Language : English
Default : No
Forced : No

Menu
00:00:00.000 : en:Chapter 01
00:07:42.333 : en:Chapter 02
00:14:50.708 : en:Chapter 03
00:22:13.375 : en:Chapter 04
00:29:44.458 : en:Chapter 05
00:35:05.458 : en:Chapter 06
00:40:40.000 : en:Chapter 07
00:48:05.000 : en:Chapter 08
00:55:05.667 : en:Chapter 09
01:03:00.542 : en:Chapter 10
01:10:06.083 : en:Chapter 11
01:16:11.792 : en:Chapter 12


_________________
Проголосуй за трекер Открытый торрент трекер - RUS-MEDIA.ORG

Проголосуй Открытый торрент трекер - RUS-MEDIA.ORG


Скачать книги и аудио книги через торрент


Вернуться к началу
 Профиль Отправить личное сообщение  
 
   Похожие торренты   Автор   Торрент   Размер 
В этой теме нет новых непрочитанных сообщений. Королевский корги / The Queen's Corgi [мультфильм, комедия, семейный, 2019] BDRip 1080p, Dub [iTunes]

OLEG270877

7 | 0

7.9 ГБ

В этой теме нет новых непрочитанных сообщений. Королевский корги / The Queen's Corgi [Мультфильм, приключения, семейный, 2019] BDRip 1080p, Dub [iTunes] [3D-Video]

salma3

51 | 7

5.91 ГБ

В этой теме нет новых непрочитанных сообщений. Королевский корги / The Queen's Corgi [Мультфильм, приключения, семейный, 2019] BDRip, Dub [iTunes]

salma3

1 | 0

1.42 ГБ

В этой теме нет новых непрочитанных сообщений. Королевский корги / The Queen's Corgi [Мультфильм, приключения, семейный, 2019] BDRip 720p, Dub [iTunes]

salma3

5 | 0

3.83 ГБ

В этой теме нет новых непрочитанных сообщений. Королевский корги / The Queen's Corgi [Мультфильм, приключения, семейный, 2019] BDRemux 1080p, Dub [iTunes]

salma3

0 | 0

19.21 ГБ

В этой теме нет новых непрочитанных сообщений. Король Лев / The Lion King [Мультфильм, мюзикл, драма, приключения, семейный, 2019] BDRip-HEVC 1080p, Dub [iTunes]

K15

558 | 33

6.8 ГБ

В этой теме нет новых непрочитанных сообщений. Дамбо / Dumbo [Фэнтези, семейный, 2019] BDRip-HEVC 1080p, Dub [iTunes]

salma3

13 | 6

2.4 ГБ


Начать новую тему Ответить на тему  [ 1 сообщение ] 




Для Мосгорсуда, Роскомнадзора и рекламодателей:: mosgorsud-torrent[собачка]yandex.ru
cron