COVID-19 - Последняя информация о коронавирусе на сайте Минздрава




Торрент файл
скачать торрент магнет ссылка Добавлен: 07 июл 2019, 10:58
Размер: 1.55 ГБ
Сидеров: 0
Личеров: 0
Статус: (salma3)
Автор

СообщениеДобавлено: 07 июл 2019, 10:58 

Не в сети
Супермодератор
Аватара пользователя
Дата регистрации:
15 фев 2012, 16:44
Возраст: 32
Спасибо: 8304 / 2148
Сообщения: 97085
Год выпуска: 2018
Жанр: Мультфильм, комедия, приключения
Режиссер: Андрес Кутерье

В ролях: Лили Коллинз, Тоби Кеббелл, Иэн МакШейн, Кит Викхэм, Дэвид Холт, Эмма Тейт, Эми Томпсон, Андрес Уильямс, Клэр Морган, Пол Тайлак


Главный герой мультфильма, мальчик Терри, был уверен, что забавные волшебники, драконы-полицейские, королевство воздушных шариков и другие самые причудливые явления встречаются только в книжках его бабушки. Но бабушка забыла предупредить: её сказки основаны на реальных событиях! Теперь Терри предстоит спасти волшебную страну Игрувию от злого волшебника Грампа, а помогать ему будут мечтательная принцесса Лучик и птичка-навигатор ДжипиСойка. Впереди — много опасных, но весёлых приключений, приятных (и не очень) знакомств и самых неожиданных открытий. Осторожно: сказка начинается!



Страна: Великобритания, Мексика, США
Продолжительность: 01:36:44
Перевод: Дубляж

Файл
Кодек: H.264
Качество: WEBRip-AVC
Видео: 1120x464 (2.40:1), 1780 kbps, 24.000 fps
Звук: Русский (AAC, 2 ch, 512 Кбит/с)
Субтитры: нет

General
Unique ID : 182818674812665770408160053065309850383 (0x89899894DD49A4DB5FF3EF6C34A18B0F)
Complete name : H:МУЛЬТЫОсторожно - Грамп!.mkv
Format : Matroska
Format version : Version 4
File size : 1.55 GiB
Duration : 1 h 36 min
Overall bit rate : 2 294 kb/s
Movie name : Осторожно: Грамп! / Here Comes the Grump (2018) - #LORDKILL#
Encoded date : UTC 2019-07-06 16:42:16
Writing application : mkvmerge v21.0.0 ('Tardigrades Will Inherit The Earth') 64-bit
Writing library : libebml v1.3.5 + libmatroska v1.4.8

Video
ID : 1
Format : AVC
Format/Info : Advanced Video Codec
Format profile : High@L4.1
Format settings : CABAC / 11 Ref Frames
Format settings, CABAC : Yes
Format settings, Reference : 11 frames
Codec ID : V_MPEG4/ISO/AVC
Duration : 1 h 36 min
Bit rate : 1 780 kb/s
Width : 1 120 pixels
Height : 464 pixels
Display aspect ratio : 2.40:1
Frame rate mode : Constant
Frame rate : 24.000 FPS
Color space : YUV
Chroma subsampling : 4:2:0
Bit depth : 8 bits
Scan type : Progressive
Bits/(Pixel*Frame) : 0.143
Stream size : 1.20 GiB (78%)
Writing library : x264 core 146 r2538 121396c
Encoding settings : cabac=1 / ref=11 / deblock=1:-2:-2 / analyse=0x3:0x113 / me=umh / subme=10 / psy=1 / psy_rd=1.00:0.15 / mixed_ref=1 / me_range=32 / chroma_me=1 / trellis=2 / 8x8dct=1 / cqm=0 / deadzone=21,11 / fast_pskip=0 / chroma_qp_offset=-3 / threads=12 / lookahead_threads=2 / sliced_threads=0 / nr=0 / decimate=1 / interlaced=0 / bluray_compat=0 / constrained_intra=0 / bframes=9 / b_pyramid=2 / b_adapt=2 / b_bias=0 / direct=1 / weightb=1 / open_gop=0 / weightp=2 / keyint=240 / keyint_min=23 / scenecut=40 / intra_refresh=0 / rc=crf / mbtree=0 / crf=19.5 / qcomp=0.60 / qpmin=0 / qpmax=69 / qpstep=4 / ip_ratio=1.40 / pb_ratio=1.30 / aq=1:1.00
Default : Yes
Forced : No

Audio
ID : 2
Format : AAC LC
Format/Info : Advanced Audio Codec Low Complexity
Codec ID : A_AAC-2
Duration : 1 h 36 min
Bit rate : 512 kb/s
Channel(s) : 2 channels
Channel layout : L R
Sampling rate : 48.0 kHz
Frame rate : 46.875 FPS (1024 SPF)
Compression mode : Lossy
Stream size : 354 MiB (22%)
Title : Дубляж
Language : Russian
Default : Yes
Forced : No


_________________
Проголосуй за трекер Открытый торрент трекер - RUS-MEDIA.ORG

Проголосуй Открытый торрент трекер - RUS-MEDIA.ORG


Скачать книги и аудио книги через торрент


Вернуться к началу
 Профиль Отправить личное сообщение  
 
   Похожие торренты   Автор   Торрент   Размер 
В этой теме нет новых непрочитанных сообщений. Снежные гонки / Racetime [Мультфильм, комедия, приключения, 2018] BDRip-AVC, Dub [iTunes]

salma3

0 | 0

1.62 ГБ

В этой теме нет новых непрочитанных сообщений. Лесная братва / Over the Hedge [мультфильм, комедия, приключения, 2006] BDRip-AVC, Dub

salma3

0 | 0

1.82 ГБ

В этой теме нет новых непрочитанных сообщений. Стражи Арктики / Arctic Justice [мультфильм, комедия, приключения, 2019] BDRip-AVC, Dub [iTunes]

salma3

0 | 0

1.46 ГБ

В этой теме нет новых непрочитанных сообщений. Вокруг света за 80 дней / Around the World in 80 Days [боевик, комедия, приключения, 2004] WEBRip-AVC, Dub [Open Matte]

salma3

0 | 0

743.65 МБ

В этой теме нет новых непрочитанных сообщений. Рождественские хроники / The Christmas Chronicles [Фэнтези, комедия, приключения, 2018] WEBRip, Dub

salma3

0 | 0

1.46 ГБ

В этой теме нет новых непрочитанных сообщений. Ральф против интернета / Ralph Breaks the Internet [Мультфильм, фэнтези, комедия, 2018] BDRip-AVC, Dub [Лицензия]

salma3

0 | 0

1.46 ГБ

В этой теме нет новых непрочитанных сообщений. Снежные гонки / Racetime [Мультфильм, комедия, приключения, 2018] BDRip, Dub [iTunes]

salma3

0 | 0

1.42 ГБ


Начать новую тему Ответить на тему  [ 1 сообщение ] 




Для Мосгорсуда, Роскомнадзора и рекламодателей:: rstracker[собака]yandex.ru
cron